<?xml version="1.0" standalone="no"?>
<!DOCTYPE svg PUBLIC "-//W3C//DTD SVG 1.1//EN" "http://www.w3.org/Graphics/SVG/1.1/DTD/svg11.dtd">
<svg xmlns="http://www.w3.org/2000/svg">
<defs>
<font id="icofont" horiz-adv-x="1000" >
<font-face font-family="IcoFont" font-weight="400" font-style="Regular" units-per-em="1000" ascent="850" descent="-150" />
<missing-glyph horiz-adv-x="1000" />
<glyph glyph-name="angry-monster" horiz-adv-x="1000" unicode="&#xe800;" d="M200 263c0-5 0-11 6-13 6-2 11 2 12 7 7 21 24 31 43 40-17-1-33-6-48-13-8-4-14-11-13-21z m-37 122c-3 6-10 7-16 4-6-2-8-8-8-14 0-11 6-18 15-23 28-13 57-24 88-24 7 0 15-2 21 9-44-4-81 4-100 48z m63-79c9 0 19-2 31 13-37-8-68 0-99-3-15-2-26-9-31-24-2-5-2-11 4-15 5-3 11-1 14 3 21 27 51 26 81 26z m639 351c6 30 15 60 5 91-5 18-14 33-33 38-19 5-34-6-45-20-20-22-29-49-31-78-10-114-18-228-27-342-5-52-11-104-17-155-1-17-8-22-25-16-29 12-59 25-92 20-24-3-48-4-72-4-17 0-34-1-51 0-17 1-27 14-33 28-6 11-1 21 8 29 55 50 82 112 79 186 0 9 2 14 11 16 35 11 51 49 49 83-4 52-59 80-109 58-7-4-12-8-21-1-50 37-146 38-197 2-9-7-17-8-28-8-43 0-73-27-74-68-1-44 25-75 69-78 19-1 33-9 40-27 6-12 11-25 20-34 35-37 35-77 12-120-17-33-4-54 34-57 21-1 42 4 62 13 4 1 11 7 16 1 4-5 1-11-2-16-1-4-2-9-5-12-18-19-21-41-18-66 2-22-2-43-17-61-15-20-21-41-10-66 10-23 6-33-18-44-9-4-20-7-26-18-3-6-5-11 4-13 22-4 70 27 76 49 2 9 3 19 14 21 10 1 14-9 18-17 2-4 4-9 6-14 11-30 36-40 65-44 5 0 13-2 15 5 3 8-4 11-9 15-3 2-6 4-9 6-27 15-37 39-35 69 2 20 13 32 33 35 19 2 37-3 54-8 31-9 62-17 93-8 19 5 24-6 33-18 9-13 1-21-7-28-6-7-14-10-21-16-11-9-14-20-3-32 10-12 45-16 60-7 17 10 10 24 7 39-3 18-5 33 15 47 21 13 18 26-3 37-5 3-11 4-8 10 2 5 2 12 10 14 6 1 12 3 19 5 15 4 26 14 27 30 2 18-5 32-21 37-16 6-10 15-8 25 40 162 87 323 121 487z m-360-99c25 0 53-24 52-45-1-17-19-33-38-34-24 0-48 23-47 46 0 21 13 33 33 33z m-222-47c-1-18-20-33-43-32-26 0-45 15-45 36 0 21 19 38 42 38 26 0 47-20 46-42z m121-281c-19-13-40-19-63-16-25 3-33 19-21 42 1 2 1 4 3 5 33 32 26 65 6 99-10 16-17 33-16 52 2 32 25 60 53 66 36 7 66-6 82-36 14-25 19-52 18-81-2-52-17-99-62-131z m284-147c15-12 12-22 5-38-10 16-21 11-36 7-41-12-81-6-117 19-17 12-32 25-48 38-20 16-19 31 3 42 28 13 57 31 88 18 28-13 54-12 82-8 14 2 26 1 25-18 0-7 9-9 12-15-26-7-33-29-14-45z m-266 349c-3-4-6-8-11-5-4 1-3 6-3 9 3 20-7 30-26 29-20-2-25-15-21-33 0-3 1-6 1-9 0-4-1-9-7-10-4-1-6 3-8 6-2 4-2 10-7 9-6-2-7-8-7-13-2-21-2-42 10-60 23-34 31-66-8-94-1-1-1-2-1-2-4-6-8-12-1-17 6-4 16-10 20-4 10 14 16 27 30 4 3-5 10 4 14 7 39 37 47 84 50 136-1 12-2 26-4 40-3 14-8 23-21 7z m-165 93c-3 1-6 1-9 1-11 0-17-6-18-17 0-10 6-16 14-17 11-1 15 8 17 17 1 3 1 6 1 8-1 3-3 6-5 8z m256-32c6-3 12 0 16 5 4 5 6 10 3 18-6 14-20 15-27 8-4-4-1-12-1-17-1-7 3-11 9-14z" />
<glyph glyph-name="bathtub" horiz-adv-x="1000" unicode="&#xe801;" d="M608 495c30 0 54-25 54-55s-24-55-54-55-55 25-55 55 25 55 55 55z m-243 16c0 36 30 66 66 66s65-30 65-66-29-66-65-66-66 30-66 66z m22 0c0-24 20-44 44-44s43 20 43 44-19 44-43 44-44-20-44-44z m48 167c0 46 38 84 84 84s84-38 84-84-38-84-84-84-84 38-84 84z m23 0c0-34 27-61 61-61s61 27 61 61-28 61-61 61c-33 0-61-28-61-61z m275-698c-14-1-31-2-26-23 6-18 12-39 36-42 17-2 28 10 25 28-3 17-8 39-35 37z m-670 660c0 80 65 146 146 146s146-66 146-146-66-147-146-147-146 66-146 147z m26 0c0-67 54-121 120-121s119 54 119 121-53 120-119 120-120-54-120-120z m741-344c-13-5-26-10-39-14-201-71-407-79-616-54-25 3-55 11-41-31 29-91 97-202 235-193 42 3 84 1 126 1s84 0 126 0c162 0 254 81 275 241 10 76 6 79-66 50z m102 129c-14 26-37 14-57 3-236-122-487-130-743-93-25 4-56 17-61-22-6-38 29-37 53-42 81-15 163-17 227-20 204 1 384 31 551 119 22 11 47 25 30 55z m-644-449c-25 5-29-18-34-34-4-16 9-27 24-28 25-1 34 23 38 42 5 21-18 18-28 20z" />
<glyph glyph-name="bird-wings" horiz-adv-x="1000" unicode="&#xe802;" d="M306 788c-43-61-71-128-88-200-6-22-8-44-6-67 3-22 14-41 28-58 24-28 51-53 78-79 67-68 132-137 197-207 35-37 73-73 110-109 6-5 5-8 0-13-44-46-88-93-132-139-5-5-7-5-12 0-44 42-88 85-132 127-4 4-3 6 0 9 26 24 52 48 77 72 4 3 6 3 9 0 12-11 23-22 35-32 4-3 3-5 0-9l-25-28c-4-3-4-5 0-9 12-10 24-21 35-31 4-3 6-4 9 0 14 16 28 31 43 47 4 4 3 6-1 10-19 21-39 42-59 62-40 41-79 81-121 119-45 41-92 79-139 117-20 17-41 34-60 53-7 7-14 15-20 24-7 11-10 22-7 35 20 103 70 190 141 267 6 7 14 14 21 21 7 6 13 12 19 18z m388-3c9-5 14-10 19-16 67-65 117-140 147-229 6-20 11-40 15-61 2-8 0-16-3-24-12-22-30-38-48-54-46-39-93-77-138-116-37-32-73-65-107-101-2-1-4-2-5-4-5-7-9-7-15 0-9 12-20 22-30 33-4 4-4 6 0 9 54 59 109 118 166 174 23 23 45 45 66 69 25 28 32 62 26 97-13 80-44 153-90 219-1 1-1 1-3 4z m-87-424c0 31-3 59-31 77 85 42 127 116 156 203 20-62 25-120-21-172-32-37-67-71-101-106 0-1-1-1-3-2z m-183 77c-28-18-31-47-32-78-5 5-8 9-12 13-28 29-56 57-84 87-42 44-51 96-36 153 2 9 5 17 7 25 0 0 1 1 2 2 28-85 70-160 155-202z m177 54c7 21 3 40-9 58-3 4-10 7-8 11 1 3 8 5 12 7 51 30 87 72 103 130 1 5 2 10 3 16 5-10 7-32 5-47-6-41-25-76-48-110-17-23-36-45-58-65z m-201-1c-15 12-27 26-39 41-25 29-45 60-58 96-10 26-13 53-8 80 0 1 0 3 1 4 0 1 1 2 2 4 2-13 5-24 9-35 19-52 55-89 102-116 6-3 8-5 3-11-16-17-19-37-14-59l2-4z" />
<glyph glyph-name="bow" horiz-adv-x="1000" unicode="&#xe803;" d="M886 662c-19 10-42 16-67 16-56 0-126-27-210-81-61-39-106-77-107-79l-2-1-2 1c-2 2-46 40-107 79-84 54-155 81-210 81-25 0-48-6-67-16-26-16-57-47-51-111 4-36 18-77 33-117 9-26 18-52 24-76 60 163 311 108 311 108-164-175-252-99-257-82-12-13-26-35-33-49 53-83 165-51 225-12 28 19 53 39 75 62l2-3c-4-4-6-8-9-11-17-20-33-42-48-64-12-18-23-35-33-51-13-21-25-43-39-70-9-17-18-34-27-54-6-14-12-28-17-42l-5-11-10-24 99 66 68-99 0 26 0 25 1 14c0 13 1 27 2 40l0 6 1 4c2 23 5 47 8 71 3 19 7 40 12 61 5 24 11 50 19 74l3 10 1 3c7-4 14-5 22-5h18c8 0 15 1 22 5 0-1 1-2 1-3l3-10c8-24 14-50 19-74 5-21 9-41 12-62 3-23 6-47 8-70l1-4 0-6c1-13 3-27 3-40l0-14c0-8 0-16 0-25l0-26 68 99 99-66-10 24c-1 4-3 7-4 11-6 14-12 28-18 42-9 20-18 37-26 54-14 27-27 49-39 70-11 16-21 33-34 52-15 22-31 43-47 63-3 3-6 7-9 11l1 3c22-22 48-43 76-61 60-39 171-71 224 12-7 13-20 35-33 49-5-18-92-93-256 81 0 0 251 55 310-108 6 24 15 50 25 76 14 40 29 81 32 118 6 63-25 94-51 110z m-324-246c-5 24-27 43-53 43h-18c-26 0-48-19-53-43 0 3-1 7-1 11 0 29 24 54 54 54h18c30 0 54-24 54-54 0-4-1-8-1-11z" />
<glyph glyph-name="castle" horiz-adv-x="1000" unicode="&#xe804;" d="M323 459v131c0 9-8 17-18 17h-17c-9 0-17-8-17-17v-35h-49v35c0 9-7 17-16 17v48l104 34c7 2 8 12 1 16l-119 59c-6 3-13-1-13-7v-150c-9 0-16-8-16-17v-34h-49v34c0 10-8 18-17 18h-17c-9 0-17-8-17-18v-131c0-5 1-9 5-13l41-41c4-4 6-8 6-13v-439c0-10 8-18 18-18h137l1 457c0 5 2 9 5 13l42 41c3 4 5 8 5 13z m-104-254c0-8-6-14-14-14h-16v0h-9c-8 0-14 6-14 14v64c0 15 12 26 26 26 2 0 3 0 5 0 12-2 22-13 22-26l0-64z m701 402h-17c-10 0-18-8-18-17v-35h-48v35c0 9-8 17-17 17v48l104 34c7 2 8 12 1 16l-119 59c-6 3-13-1-13-8v-149c-8-1-15-8-15-17v-34h-49v34c0 10-8 18-18 18h-16c-10 0-18-8-18-18v-131c0-5 2-9 5-13l42-41c3-4 5-8 5-13l1-457h138c9 0 17 8 17 18v439c0 5 2 9 6 13l41 41c4 3 6 8 6 13v131c-1 9-9 17-18 17z m-87-402c0-8-6-14-13-14h-25c-8 0-14 6-14 14v64c0 13 10 24 22 26 1 0 3 0 4 0 15 0 26-11 26-26l0-64z m-177 109l36 0v-379h-70c-10 0-18 8-18 18v86c0 57-47 104-104 104s-104-47-104-104v-86c0-10-8-18-18-18h-73v379l39 0 0 35c0 10 8 18 18 18h68c10 0 18-8 18-18v-34h41v194c0 5 4 9 9 8l1 1c3 0 6-2 8-5l72-45c5-4 5-12-1-15l-70-34v-104h44v34c0 10 8 18 18 18h68c10 0 18-8 18-18v-35z" />
<glyph glyph-name="circuit" horiz-adv-x="1000" unicode="&#xe805;" d="M161 474c18 13 34 26 52 38 41 27 83 46 132 50 58 6 112-5 162-35 24-14 45-30 67-47 26-19 55-31 88-31 42 0 85 0 128 0 45 0 90 0 135 0h2c-7 31-18 62-32 91-1 0-2 0-3 0-49 0-99-1-148 0-37 1-70 12-100 32-23 16-44 34-67 50-55 38-113 66-181 69-48 2-95-2-140-20-40-16-76-39-110-64-34-47-59-100-72-158 32-2 61 5 87 25z m361 220c41-19 78-45 113-72 16-12 32-25 51-34 25-11 52-13 79-13 37-1 73 0 109 0l2 0c-77 127-216 212-376 212-97 0-186-31-258-84 38 15 78 22 119 23 56 2 110-8 161-32z m-22-781c85 0 164 24 231 66h-461c66-42 146-66 230-66z m-400 454c12 0 23 1 35 4 30 7 56 23 81 41 20 16 40 32 63 45 38 22 78 29 122 23 27-4 52-16 76-30 22-14 41-31 62-45 36-26 76-40 121-39 43 2 85 1 128 1 49 0 98 0 148 0 0 0 1 0 2 0-1 16-2 31-5 46-1 1-2 1-3 1-87-1-174 0-261-1-41 0-77 12-110 35-19 13-36 28-55 40-37 24-76 39-121 40-45 2-87-7-126-30-23-13-45-30-66-46-23-18-49-32-79-37-15-2-30-1-45-1h0c-2-16-4-31-4-47 1 0 2 0 4 0 11 0 22 0 33 0z m548-35c-14 0-28 1-41 4-35 7-65 23-93 43-21 15-42 32-64 46-35 22-72 26-111 19-25-5-46-19-67-33-23-17-44-35-69-49-28-16-58-27-90-30-17-1-33 0-49 0 0 0-1 0-1 0 1-16 2-31 4-46 1-1 3-1 5-1 22 1 44 1 66-4 35-7 65-24 94-44 19-15 38-30 59-43 32-21 66-27 103-23 25 3 46 14 66 27 20 13 39 29 59 43 43 30 90 46 143 45 41-1 82-1 123-1h60c29 0 58 1 87 0h1c3 15 4 31 5 46-1 0-2 0-3 0-96 1-192 1-287 1z m-276-120c-54 0-98 43-98 97 0 53 44 97 98 97 54 0 97-44 97-97 0-54-43-97-97-97z m271 38c-7 0-13-1-20-2-30-4-56-17-81-34-21-14-40-30-61-44-71-47-143-48-215-2-19 12-36 26-54 39-41 31-86 47-138 43 0 0 0 0 0 0 4-16 8-32 14-47h0c8 0 16 1 23 0 24-3 45-13 64-27 19-13 37-27 55-40 43-30 89-50 141-47 41-2 78 8 112 28 26 14 50 32 73 51 31 24 66 36 106 36 83-1 166-1 249-1h2c5 15 10 31 13 47h-2c-94 0-188 0-281 0z m16-81c-29 0-55-8-78-27-21-16-42-32-65-47-68-42-142-53-219-31-41 11-76 34-109 59-17 13-33 26-52 36-11 5-22 9-34 9 28-60 68-112 118-154 187 0 373 0 560 0 50 42 91 94 118 154h-4c-78 0-157 0-235 1z m3-124c-26 0-46 21-46 47 0 25 21 46 47 46 26 0 47-21 47-47 0-26-21-46-48-46z m113 40c-14 0-27 13-27 27 1 14 13 26 27 26 15 0 26-12 26-27 0-14-12-26-26-26z" />
<glyph glyph-name="crown-king" horiz-adv-x="1000" unicode="&#xe806;" d="M260 594l-67 86 53 69c9 11 24 11 33 0l58-75-77-80z m549 88l-52 67c-9 11-24 11-33 0l-59-76 75-79 69 88z m129 41v-441c0-101-196-183-438-183s-437 82-437 183v441c0 18 11 30 23 30 6 0 12-3 17-9l70-90 85-109 99 103 128 133c5 4 10 6 15 6s11-2 15-6l130-135 98-101 154 199c5 6 11 9 17 9 12 0 24-12 24-30z m-761-372l-17 42c-3 9-13 9-17 0l-16-42c-1-3-1-8 0-11l16-42c4-9 14-9 17 0l17 42c1 4 1 8 0 11z m384-50l-53 99c-4 6-12 6-16 0l-53-99c-2-4-2-10 0-14l53-98c4-7 12-7 16 0l53 98c2 5 2 10 0 14z m314 50l-17 42c-3 9-13 9-16 0l-17-42c-1-3-1-8 0-11l17-42c3-9 13-9 17 0l16 42c1 4 1 8 0 11z m-276-297c-31-4-65-5-99-5-34 0-67 1-99 5-164 15-293 69-330 137-4 6-6 12-8 19v-115c0-101 195-183 437-183s438 82 438 183v115c-2-7-5-13-8-19-38-68-167-122-331-137z" />
<glyph glyph-name="crown-queen" horiz-adv-x="1000" unicode="&#xe807;" d="M910 132c13-15 11-37-4-49-74-62-230-101-406-101s-331 39-406 100c-15 13-17 35-4 50 12 15 34 17 49 4 70-58 232-84 361-84s291 26 361 84c15 13 37 11 49-4z m27 365l-36-305c-1-6-3-11-8-15-71-60-222-98-393-98s-322 38-393 98c-5 4-7 9-8 15l-36 305c-1 10 3 19 11 24s19 3 26-2c1-1 62-48 139-48 100 0 180 78 239 232 4 9 12 15 22 15s19-6 22-15c59-154 139-232 239-232 77 0 138 47 139 47 7 6 17 7 25 2 9-4 14-13 12-23z m-664-233c0 23-17 42-37 42-20 0-37-19-37-42s17-42 37-42c20 0 37 19 37 42z m313 0l-71 107-71-107 31-47 40-60 40 60 31 47z m239 0c0 23-17 42-37 42s-37-19-37-42 17-42 37-42c20 0 37 19 37 42z" />
<glyph glyph-name="dart" horiz-adv-x="1000" unicode="&#xe808;" d="M272 487c-27-43-42-93-42-147 0-155 126-281 280-281 155 0 281 126 281 281s-126 281-281 281c-54 0-104-16-147-42l38-38c32 18 70 28 109 28 126 0 229-103 229-229 0-126-103-229-229-229s-228 103-228 229c0 40 10 77 27 109l-37 38z m104-105c-4-13-6-27-6-42 0-77 63-140 140-140 77 0 140 63 140 140s-63 140-140 140c-15 0-29-2-42-6l45-46c48-1 85-40 85-88 0-49-39-89-88-89-48 0-87 38-88 86l-46 45z m-232 178c-39-65-61-140-61-220 0-236 192-428 427-428 236 0 427 192 427 428 0 236-191 427-427 427-80 0-155-22-219-61l37-38c54 30 116 47 182 47 207 0 376-168 376-375 0-207-169-376-376-376s-375 169-375 376c0 66 17 128 47 182l-38 38z m-81 136l73 18 18 74 138-138-6-49 244-244c10-10 10-26 0-36-10-11-27-11-37 0l-243 243-50-5-137 137z" />
<glyph glyph-name="disability-race" horiz-adv-x="1000" unicode="&#xe809;" d="M538 44c-96-1-173 76-173 171 0 95 77 172 171 172 94 1 172-76 172-169 1-98-74-174-170-174z m-127 170c1-68 57-124 126-125 69 0 125 56 126 126 0 70-57 127-127 126-69 0-125-57-125-127z m-200 273c48-40 106-55 251-64-51-53-114-68-187-80 39-17 73-16 109-16-8-18-16-33-23-48-2-4-5-6-9-7-28-5-55-9-84 0 23 4 44 10 62 29-17 3-32 5-46 7-22 5-41 16-56 33-16 20-33 40-66 43 22 13 39 11 57 5 49-18 95-4 141 17-14 1-28 3-42 5-31 6-62 15-87 34-43 33-91 33-140 21-10-2-18-4-28-7 42 55 106 77 172 58 38-11 76-21 115-16 12 1 24 2 33 11-51 26-60 33-75 68 39-19 79-12 118-9 66 5 130-2 189-35 5-2 11-4 13-11-73 13-145 27-222 13 15-12 32-6 49-16-75-62-158-52-244-35z m477-161c-25 31-52 53-87 64-9 4-12 8-6 17 16 28 32 58 48 86 16 26 47 35 74 25 27-11 43-38 37-66-4-17 2-19 15-19 31 0 62-2 94-2 18-1 32-7 31-27-1-18-15-23-32-22-39 1-79 1-118 3-17 1-27-3-34-20-6-12-14-24-22-39z m142 265c0-36-30-66-65-66-36 1-66 32-65 67 1 35 30 64 65 64 36 1 66-29 65-65z m19-547c-51-1-90 38-89 88 0 50 38 88 86 89 50 1 91-38 92-87 1-49-40-90-89-90z m67 89c0 38-31 68-69 68-37-1-68-32-68-70 1-37 32-67 70-67 38 0 68 31 67 69z m-222 178h58l80-80s-37-2-53-29l-39 37-22-1c0 0 0 31-24 73z" />
<glyph glyph-name="diving-goggle" horiz-adv-x="1000" unicode="&#xe80a;" d="M63 407c3 15 6 31 14 46 16 32 42 54 76 66 45 16 90 26 137 33 82 12 164 15 247 13 89-2 177-9 264-32 27-7 54-14 77-31 32-22 52-52 58-91 0-1 1-3 2-4v-120c-3-5-3-12-4-17-20-71-64-116-136-133-8-2-16-2-24-2-62 0-123 0-184 0-16 0-21 4-23 20-5 28-12 55-33 77-25 25-59 24-83-2-17-21-25-45-29-71-1-2-1-5-2-8-2-11-8-16-19-16-59 0-118-1-176 0-57 0-101 26-132 72-16 22-25 47-28 74-1 2-1 4-2 6l0 120z m632-235c24 0 48 0 72 0 75-1 130 63 133 124 2 32 1 65 1 98-1 30-14 54-37 73-14 12-31 18-49 24-83 25-170 34-257 37-85 3-171 0-256-12-47-7-93-15-138-32-37-13-63-47-64-86-1-33 0-66 0-98 0-17 3-34 11-49 21-46 56-77 108-79 54-2 108 0 162 0 5 0 6 2 7 6 5 26 15 50 31 71 40 50 106 51 147 3 17-21 27-45 33-72 1-6 3-8 10-8 29 0 57 0 86 0z m-210 321c95 0 189-5 282-27 18-4 35-9 52-15 30-11 46-33 46-65 0-29 1-59-1-89-3-46-44-87-90-89-45-1-89 0-134 0-10 0-16 5-20 15-11 28-26 54-51 73-55 44-131 34-175-24-12-15-21-32-28-51-3-8-9-13-18-13-43 0-86-1-128 0-35 1-58 22-74 52-6 12-10 26-10 40-1 33-2 65 0 98 2 25 15 43 39 52 38 14 77 22 117 28 64 10 128 14 193 15z m12-37c-54-1-110-3-166-10-47-6-93-13-138-29-15-5-21-13-21-29v-71c0-8 0-16 2-24 5-31 27-49 59-49 32 0 63 0 95 0 6 0 9 2 12 7 8 18 18 35 31 50 54 66 148 78 217 28 27-20 46-47 59-77 3-6 6-8 13-8 35 0 70 1 104 0 36-1 65 32 64 64 0 26 0 51 0 77 0 17-6 26-22 32-26 9-53 15-80 20-75 14-151 18-229 19z m-163-144c-10 0-18 6-19 16-1 10 5 19 15 20 13 2 26 4 38 5 10 1 19-6 20-16 1-10-5-19-15-21-13-1-26-2-39-4z m-54 6c0-9-5-15-14-18-11-4-23-7-35-10-9-3-18 2-22 11-3 9 1 19 10 23 13 5 27 9 41 12 10 2 20-8 20-18z" />
<glyph glyph-name="eye-open" horiz-adv-x="1000" unicode="&#xe80b;" d="M462 650c0 15-1 30 0 46 0 24 17 41 39 41 23 0 40-18 41-41 0-31 0-62-1-93 0-8 1-12 11-13 8 0 16-3 24-5 6-2 9 0 10 6 9 29 19 57 28 86 7 22 27 34 48 28 22-6 35-27 28-50-9-30-19-60-29-90-2-7-2-10 5-13 8-3 15-8 23-12 12-7 12-7 19 5 16 25 31 49 47 74 17 25 54 23 68-4 7-14 6-28-3-41-16-26-32-53-49-79-4-5-4-9 2-13 8-6 16-12 24-20 4-4 7-4 11 1 19 22 38 44 58 65 17 19 41 22 58 6 18-16 18-40 1-58-19-23-39-45-59-67-6-6-6-10 0-18 24-27 45-56 60-90 8-16 8-32 1-49-19-42-48-77-79-110-51-55-109-101-176-135-59-29-121-47-187-44-56 2-108 17-157 43-100 51-181 126-243 220-6 9-12 19-17 29-7 15-7 30 0 45 18 36 41 67 67 97 6 7 6 10 0 16-20 22-40 44-59 67-12 14-12 32-2 47 10 14 28 21 44 16 9-3 16-9 23-16 16-20 34-38 50-58 6-7 9-6 16 0 6 6 14 12 22 18 5 4 6 7 2 12-16 25-31 50-47 75-16 26-3 56 26 62 15 4 31-4 41-18 15-24 30-49 45-73 4-7 7-7 14-3 9 5 18 10 28 15 5 2 6 4 4 10-9 29-18 57-27 86-7 22 3 45 25 52 21 7 42-4 50-27 9-28 19-56 27-84 2-7 5-8 12-7 8 3 17 4 25 5 6 1 8 3 8 9-1 16 0 32 0 49z m-193-370c0-126 101-229 224-229 131-1 233 100 233 230 0 123-103 226-226 226-128 0-230-100-231-227z m100-1c2 75 59 130 134 128 68-1 124-61 122-131-1-69-60-130-137-125-65 4-119 59-119 128z" />
<glyph glyph-name="flora-flower" horiz-adv-x="1000" unicode="&#xe80c;" d="M909 232v-5c-3-2-4-6-5-9-49-94-110-179-201-239-120-80-245-89-374-20-78 42-135 105-184 176-20 30-37 61-54 92v5c2 0 5 0 7 1 44 12 87 11 130-3 80-24 141-74 194-135 18-22 34-45 50-72 0 5 0 7 0 9 0 133 0 266 1 399 0 10-5 11-13 11-43-1-83 8-121 28-49 25-81 64-84 119-1 29-1 58 0 88v111l133-124 112 124 107-124 135 124 3-61c0-3 0-5 0-7 1-41 0-81 0-121 0-45-18-82-54-110-43-34-94-46-149-47-11 0-15-3-15-14 1-130 1-260 1-390 0-4-1-8 1-12 1 1 2 1 2 1l5 9c43 69 99 126 171 167 50 28 103 44 162 36 14-1 27-5 40-7z" />
<glyph glyph-name="flora" horiz-adv-x="1000" unicode="&#xe80d;" d="M860 295c-1-100-35-187-101-260-59-65-131-106-216-119-58-9-114 0-168 23-101 44-173 120-213 228-15 39-21 80-22 121 0 80 0 160 0 239 0 82 1 163 0 245 0 12 1 16 14 14 99-13 190-46 273-104 25-18 20-14 3-34-59-72-111-149-131-244-17-81-5-157 44-224 33-45 76-71 129-79 113-17 208 65 231 184 12 69 0 134-27 197-28 64-68 121-113 173-10 12-10 12 3 22 78 57 165 91 258 106 10 2 19 2 28 4 6 1 8-1 8-7v-9c0-159 0-317 0-476z m-350 327c53-63 100-129 122-211 18-64 14-126-26-181-60-84-179-73-226 20-15 30-23 62-22 90-1 62 19 111 44 158 24 45 54 85 87 123 8 9 12 10 21 1z" />
<glyph glyph-name="gift-box" horiz-adv-x="1000" unicode="&#xe80e;" d="M467 12c0-100 0-100-101-100-93 0-102 9-102 101 0 102 0 102 100 102 103 0 103 0 103-103z m-102 367c-90 0-100-10-101-102 0-100 0-100 100-100 103 0 103 0 103 103 0 100 0 100-102 99z m106 46c-67 4-126 4-181 27-27 11-52 25-49 57 3 40 26 69 60 89 28 16 52 3 73-16 45-41 69-95 97-157z m-108 29c25-11 53-11 83-13-13 29-23 54-44 72-10 9-21 15-34 8-16-9-26-23-28-41-1-15 11-21 23-26z m265-277h5c98 0 98 0 98 97 0 95-10 106-103 105-99 0-99 0-99-101 0-101 0-101 99-101z m-129 248c-47 94-96 176-94 276 1 58 35 88 95 87 59-1 89-29 90-86 3-99-44-183-91-277z m46 168c-1 27-16 40-44 41-29 0-45-14-45-42-1-48 22-88 45-133 22 45 45 86 44 134z m162-142c-48-20-99-19-144-25-25-3-35 2-24 24 22 48 45 95 84 131 21 20 45 33 73 18 37-20 61-52 63-93 2-30-26-44-52-55z m-53 28c-1 18-12 32-28 41-12 6-23 1-32-8-18-16-28-37-38-58-4-10 0-12 11-11 20 3 43 3 64 12 11 5 23 10 23 24z m-28-364c-97 0-97 0-97-98 0-105 0-105 107-105 84 0 95 12 95 97 1 106 1 106-105 106z" />
<glyph glyph-name="halloween-pumpkin" horiz-adv-x="1000" unicode="&#xe80f;" d="M389 755c7 18 31 25 51 10 15-11 28-25 40-40 9-10 25-21 19-37-6-17-25-16-39-19-34-1-83 55-71 86z m544-492c-19-143-90-242-206-308-34-19-70-24-107-26-38-2-77 0-116 0-63-2-126-7-188 11-143 41-237 172-251 348-7 81-1 161 32 236 39 90 108 125 196 134 81 8 161-3 245 18 232 61 431-155 395-413z m-339 239l114-147 90 147h-204z m-135-256h153l-11 26c-1 2-2 5-4 8l-56 123-82-157z m-207 256l106-152 98 152h-204z m580-272c-37-17-68-49-109-53-7 0-10-6-12-13-8-40-23-33-46-11-15 15-99 3-108-11-19-32-66-34-83-2-7 14-15 17-25 15-31-4-66 21-95-15-5-6-28-10-30 15-1 10-2 21-14 22-44 5-76 36-113 58 2-90 60-170 144-202 22-9 39-13 52 18 12 27 34 27 41-5 6-27 21-29 40-29 26-1 53 0 79-1 23 0 40 4 48 34 8 30 26 24 38 1 9-14 13-28 34-25 79 12 161 113 159 204z" />
<glyph glyph-name="hand-power" horiz-adv-x="1000" unicode="&#xe810;" d="M760-88h-418c0 72 0 144 0 215 0 10-4 15-11 20-44 33-88 66-133 99-10 7-15 15-14 28 1 49 0 99 0 148 1 73 48 121 120 122 50 0 101-1 151 0 14 1 16-5 15-18-6-52-54-95-110-97-16-1-32-1-47 0-8 0-16-1-13-11 3-17-12-43 8-48 50-14 102-19 152-30 25-5 51-9 73-23 42-28 65-67 67-117 1-12 4-16 15-16 14 0 14 7 14 17-1 45-19 82-49 115-38 42-91 50-143 59-35 7-106-19-111 21-1 14 23 4 32 4 44 1 81 18 108 52 16 21 29 42 55 50 5 2 10 7 13 11 7 11 12 8 19 0 36-36 89-36 124 0 9 9 12 8 20 0 29-30 69-35 105-15 4 2 7 7 14 4 0-101 0-204 0-306 0-9-3-11-11-13-28-7-45-26-45-53-1-72-1-145 0-218z m-87 736c0-24 0-48-1-73 0-34-25-59-57-60-32 0-57 25-57 59-1 51-1 102 0 152 0 22 11 33 32 33 17 1 34 1 51 0 20 0 31-11 32-32 0-26 0-52 0-79z m-171-123c-4-2-2 4-2 5-1 42-1 42-44 42-42 0-42 0-42 42 0 45-1 90 0 136 0 28 9 37 37 37 15 1 31 1 47 0 20-1 31-10 31-30 0-62 0-124 0-186 0-19-7-40-27-46z m314 96c0-16 1-32 0-49-1-32-26-56-56-57-30 0-56 22-58 53-2 35-1 69 0 104 0 19 11 29 29 29 19 1 37 1 55 0 20 0 29-11 30-31 0-16 0-33 0-49z m-546 21c0 19 0 38 0 56 1 21 12 32 32 32 18 0 35 0 53 0 18 0 30-10 30-29 1-39 0-78 1-116 0-11-5-13-14-13-30 0-60 0-91-1-10 0-11 5-11 13 1 19 0 39 0 58z" />
<glyph glyph-name="hand-thunder" horiz-adv-x="1000" unicode="&#xe811;" d="M429 724c14 16 26 35 40 51 11 14 27 15 42 9 15-6 20-18 21-31-1-20-14-32-23-44-30-40-30-39-73-19-22 10-22 18-7 34z m71-65c19-8 32-20 38-46 25 32 47 60 67 89 13 18 9 38-7 50-15 12-38 9-51-8-18-22-34-45-51-67-7-9-8-14 4-18z m103 24c-27-34-52-68-78-103-8-11-7-25 1-37 7-12 18-17 29-17 13 0 22 4 28 13 26 33 52 66 77 100 11 16 6 37-8 48-14 11-37 10-49-4z m94-71c-14 11-32 12-45-1-20-21-38-43-51-69-12-23 7-50 35-50 7 0 16 3 21 10 18 21 35 43 50 67 10 15 5 32-10 43z m-124-286l56 70c11 14 21 30 29 46 9 19 16 38 15 60-39-28-55-25-83 16-6 9-10 4-15 2-15-6-31-19-43-16-13 3-18 24-30 36-25 25-55 40-86 54-5 2-12 3-9 11 3 8 9 1 13-1 18-8 35-17 53-25 20-10 41-3 50 15 11 19 5 40-16 52-32 17-66 34-100 50-22 10-41 3-52-20-11-22-20-45-30-68-10-26-7-50 7-74 21-36 45-69 70-102 9-11 10-19 4-31l-4-7-114-247c21 0 42 0 63 0l88 1-40-72-83-164c116 115 231 227 350 344l-156-6 63 76z" />
<glyph glyph-name="king-monster" horiz-adv-x="1000" unicode="&#xe812;" d="M183 106c-31-9-44 5-48 47-14-5-19-17-21-30-1-5 0-10 0-15-1-4 3-10-1-12-5-1-8 3-12 6-10 10-11 23-8 36 3 10 9 18 14 27-14 6-17 5-43-17-3 12 1 22 9 30 16 16 37 22 58 27 12 2 17 7 20 19 18 56 59 86 115 98 18 4 36 6 55 6 7 0 10 0 7 8-18 61-42 121-70 178-4 6-9 5-14 5-19-1-38 3-52 18-15 14-17 33-6 53 9 18 27 26 46 22 17-3 31-9 42-23 3-5 6-4 11-2 56 20 114 35 173 45 75 12 150 17 224-1 8-2 11 2 16 7 22 24 54 22 72-5 12-20 7-43-16-58-8-5-9-10-8-18 13-64 4-125-16-186-3-10-6-20-11-30-4-10 1-10 7-12 30-6 57-18 81-35 38-27 58-64 60-111 1-8 4-12 11-15 17-8 34-18 47-32 10-11 17-24 10-41-5 1-6 6-8 9-4 6-8 12-15 16-4 3-10 5-13 2-6-3 0-8 1-11 9-30 1-49-28-57 7 22 16 44-5 63-19-43-31-50-59-35 6 3 12 6 18 9 11 8 19 18 18 34 0 10-4 19-14 23-11 4-20 1-28-7-4-4-7-10-11-14-15 18-8 38 15 45 11 3 22 3 34 2 7 0 9 2 9 9 2 33-14 57-38 76-31 23-67 34-104 42-5 1-6-1-8-4-43-84-103-155-171-219-4-3-7-5-2-11 13-20 14-29 5-54 19 5 37 11 56 13 20 3 39 3 58-5 20-8 33-22 41-42 3-6 3-10-6-10-61 1-123 1-185 0-9 0-10 4-9 12 2 11 6 21 13 30 9 12 15 26 14 42-1 11-5 17-16 20-32 9-65 13-99 13-36 0-73-46-50-85 17-28 14-32-18-32-53 0-107 1-160 0-11 0-12 3-8 12 15 34 54 52 95 45 15-2 30-5 44-11 7-2 9-2 10 6 4 34 19 61 54 73 5 1 6 4 6 9-4 63-14 124-29 185-1 4-3 7-8 8-39 1-77-2-113-18-26-12-45-29-53-57-4-14-3-16 11-19 8-2 16-5 24-8 24-12 27-31 7-50-2 5-3 9-5 13-7 14-18 20-30 17-12-4-21-19-19-32 2-13 10-22 19-29 2-2 5-4 8-7z m252 213c6 1 13 1 19 1 46 4 90 13 134 25 32 8 63 17 91 34 27 17 33 40 15 66-5 7-11 13-17 18-3 3-6 5-5 10 3 20-7 36-25 42-17 5-33-1-44-20-2-5-5-5-10-5-23 0-45-2-67-7-9-3-13-1-17 8-16 41-63 59-103 41-40-18-59-65-39-103 9-17 10-30 4-48-12-33 3-53 37-59 9-2 18-3 27-3z m26 412c9-11 17-22 26-32 8 7 16 14 23 22 4 3 6 4 9-1 8-16 16-32 25-47 3-7 0-8-5-8-47-1-93-9-140-22 3 23 6 45 9 68 8-5 16-9 22-14 8-6 13-6 17 4 3 10 9 19 14 30z m35-269c5-35-33-59-55-59-34 0-63 29-65 62-2 28 34 56 68 56 17 0 32-6 41-20 7-11 10-25 11-39z m-103 0c0-21 20-41 41-41 20 0 47 21 47 36 0 27-20 47-47 47-24 0-40-17-41-42z m51-98c63 21 128 33 194 38-9-3-18-2-20-16-2-7-9-4-12 1-8 13-17 2-26 3-7 1-6-5-7-10 0-3-1-5-4-7-4-1-6 2-8 4-3 6-6 11-13 7-8-4-22 3-23-13-1-3-3-6-6-7-4-1-7 2-8 5-6 12-15 2-23 3-6 0-10-2-10-10 0-5-7-11-10-6-6 12-14 9-24 8z m195 140c12 0 22-11 22-24 0-12-12-24-25-24-12 0-25 13-24 24 1 13 13 25 27 24z m-2-41c10 0 17 7 17 15 0 10-8 19-18 19-9 0-17-8-16-17 0-10 8-18 17-17z" />
<glyph glyph-name="love" horiz-adv-x="1000" unicode="&#xe813;" d="M454 378c15 66 22 113 36 158 44 137 150 205 285 185 112-17 177-98 160-212-33-228-174-387-345-526-16-13-28-6-43 0-162 55-305 139-416 270-99 119-90 233 23 317 74 55 137 50 198-17 21-23 38-51 54-78 15-24 26-51 48-97z m37-109c-35 19-59 72-99 21-33-42-5-75 25-105 26-26 59-42 92-57 16-7 29-7 43 5 42 39 80 79 91 139 6 33 0 60-30 74-31 14-63 12-86-16-14-17-23-38-36-61z" />
<glyph glyph-name="magician-hat" horiz-adv-x="1000" unicode="&#xe814;" d="M709 442c22-67 41-125 60-184 14-46 9-61-33-84-46-24-95-34-146-40-94-10-187-7-278 20-22 7-43 16-62 29-23 16-32 36-23 63 30 89 60 178 90 267 2 7 5 15 10 21 50 60 103 117 164 166 28 22 56 22 83 0 116-96 232-192 348-289 20-16 11-90-11-104-15-10-26-6-23 13 7 39-14 54-46 66-43 16-84 35-133 56z m-483-129c-2-26-13-49-21-73-14-42-8-60 30-83 46-29 98-40 151-47 106-13 212-11 316 20 14 4 28 9 42 16 56 26 64 45 45 106-6 19-11 38-19 65 62-21 115-45 151-95 24-33 22-71-3-105-29-40-70-64-114-79-201-73-404-73-606-1-37 13-71 32-100 60-47 46-47 99-2 146 31 32 79 58 130 70z" />
<glyph glyph-name="native-american" horiz-adv-x="1000" unicode="&#xe815;" d="M525 123c-1 11-2 21-13 28-5 3-7 1-8-5-1-12 4-20 12-28 2-2 4-6 7-5 3 2 2 6 2 10z m412 81c-5 16-4 32-2 48 1 15-1 29-3 44-1 13-5 25-9 37-2 8-4 16-7 23-11 24-24 48-39 70-16 24-32 47-53 66-10 11-21 21-32 32-16 15-33 30-50 45-1 0-3 1-2 3 0 1 1 1 3 1 11 3 22 6 33 9-6 22-12 43-18 65-2 4-3 4-6 2-10-7-20-13-30-20-3-2-4-2-4 2 0 9-1 19 0 28 0 6-2 7-7 7-21 0-43-1-64-1-3 0-5 0-7 2-6 6-12 11-19 17-10 9-19 19-30 27-15 13-31 23-50 30-16 6-33 8-50 10-7 1-13-2-19-3-10-2-21-2-31-3-7-1-14-1-21-1-9 0-17 2-26 3-13 0-25 0-38 0-8-1-16-1-23-5-13-6-26-13-35-26-7-10-10-20-12-32-1-8 1-16 2-24 0-2 0-3-2-5-7-5-13-11-21-16-17-11-32-24-48-37-17-15-35-29-51-45-14-14-29-27-37-46-3-7-6-13-3-21 4-10 4-21 2-31-6-22-18-40-30-58-10-16-21-31-29-49-8-16-11-36 7-52 6-5 13-10 20-11 11-2 12-2 8-13l-1-3c-3-15-3-30 1-44 1-4 1-6-1-8-4-6-6-13-3-21 2-7 5-13 8-20 3-7 2-14-1-21-4-8-8-16-8-25 0-13 5-24 11-34 5-9 12-15 20-20 14-6 28-9 42-10 12 0 23 0 34 2 11 1 21 1 31 3 3 0 4 0 4-3 0-9 1-17 4-24 3-10 4-22 10-31 9-14 15-31 21-48 4-14 16-22 29-20 19 3 36 12 55 18 22 8 43 19 65 29 18 9 37 18 54 29 7 4 13 7 22 4 18-6 36-7 55-7 12 1 25 1 38-1 8-1 15-1 22-6 4-2 8-4 12-5 3-1 7-3 10 1 3 3 6 6 8 10 10 16 18 33 25 51 10 25 14 50 17 77 1 15 2 31 1 46 0 1 0 2 2 3 0 0 0-1 0-1 7-13 14-25 20-38 13-22 25-44 30-69 0-2 1-4 4-2 8 6 17 11 23 20 16 20 25 43 32 68 3 11 5 23 6 34 3 20 3 39 0 61 10-12 20-23 29-34 13-18 30-30 51-36 15-4 30-5 46-5 6 1 6 1 5 8z m-214 406c8 6 15 11 23 17 3 2 5 2 6-3l7-28c0-2 1-3-2-4-9-2-18-5-27-7-3-1-3 1-3 2-2 5-4 11-6 16-1 3 0 5 2 7z m-36-53c-14 0-22 11-22 24 0 13 12 26 23 24 10 2 22-11 23-24 0-13-11-24-24-24z m68-407c-7 10-13 20-20 29-1 2-2 4 0 7l10 17c1 2 2 2 3 1 6-6 11-11 17-17 1-1 2-2 1-4-4-11-7-22-11-33z m-37 69c-3 7-5 13-8 20-1 2-2 3-1 5 7 8 13 15 20 24 3-12 6-24 9-35 0-3 1-6 2-9 3-9 1-16-3-23-3-3-4-7-6-12-6 10-9 20-13 30z m-21 90c7 7 14 14 22 22 2-10 3-18 5-27 1-8 2-16 4-24 0-3 0-6-2-8-6-7-12-14-18-22-2 7-4 14-5 21-3 11-5 21-8 32 0 2 0 4 2 6z m-3 4c-1 9-3 18-4 26-1 7-1 14-3 21 0 3 0 5 2 7 7 7 14 14 22 21 2-11 3-22 5-33 0-3 0-7 1-10 2-5 0-8-3-11-7-7-13-14-20-21z m71-118c-7 8-16 13-20 24-4 10-6 20-7 31-1 6-3 12-2 19 12-7 23-14 35-21 1-1 2-3 2-4-1-16-1-32-5-48-1-3-1-3-3-1z m7 59c-1-1-3 1-4 1l-30 16c-3 2-5 4-6 8-2 17-5 33-7 52 14-9 28-16 41-24 4-3 2-9 3-13 2-12 2-23 3-35 1-2 1-4 0-5z m-7 60c-1 0-2 1-3 1l-36 23c-3 1-3 4-3 6-3 14-5 28-7 42 7-2 13-7 20-11 6-2 11-7 16-9 3-2 5-4 5-8l8-41c0-1 1-2 0-3z m-11 57c-13 7-25 14-37 21-3 1-3 5-3 7-3 15-4 30-7 45-2 20-6 40-9 60 0 1 0 1 0 1 1 3-2 8 2 9 4 1 5-3 6-5 7-14 12-29 17-44 5-16 13-32 17-49 4-15 9-29 14-45z m-52 81c2-14 4-28 6-42 0-3 0-6 1-9 1-5-1-8-4-11-6-7-12-13-19-21-2 10-1 18-2 26-2 35 0 69-1 104 0 5 0 12 5 12 5 0 6-7 7-12 2-15 5-31 7-47z m-1 204c3 0 4-1 4-5 0-10 0-20 0-31 0-3-1-4-4-4-11-2-19 3-25 13-6 9-14 17-21 27 16-1 31-1 46 0z m-231-612c-13-6-25-15-38-22-26-14-53-25-80-35-12-4-23-8-35-11-4-2-9-2-13-1-5 1-9 3-12 10-4 12-10 24-16 36-9 16-14 34-15 53-1 11-2 11 9 14 18 4 35 10 51 19 17 10 33 21 40 41 1 3 2 5 1 8-6-3-7-9-11-13-11-13-25-21-40-27-16-7-32-13-49-17-15-3-30-6-45-6-9 0-18-2-28-2-15 0-30 3-45 8-22 8-26 34-20 50 6 14 6 30-2 45-6 10-5 18 1 28 1 2 3 3 6 2 21-2 41-1 62 6 8 3 17 0 18-11 0 0 0-1 0-2 2-3 2-8 7-7 4 1 4 6 4 10-1 7-1 14-8 19-4 3-8 8-8 15 1 9-4 13-13 13-4 0-9 1-13 0-4 0-8 0-8-5 0-4 3-6 7-6 2 0 5-1 8-2 1 0 3 0 3-2 1-2-1-3-2-4-6-4-12-4-18-6-13-5-27-3-41-3-5 0-8 5-8 10-1 14 2 28 5 41 3 10 8 14 18 14 12 1 23 3 34 4 12 0 24-2 34-8 4-2 7-7 9-11 2-4 5-7 7-11 1-2 2-4 4-3 2 0 3 3 3 5-1 7-3 14-7 19-6 7-14 13-21 18-3 2-4 4-4 7 2 26-24 40-41 39-8 0-12-5-13-14-1-8 2-14 9-16 4-1 8-5 12-2 2 1 5 1 4 4-1 2-2 4-5 4-2 0-5-1-8 1-2 2-5 5-4 8 0 3 3 5 6 6 5 1 10 1 14-2 6-3 11-8 14-13 7-12-1-21-12-22-21-1-41-5-61-7-8 0-16-1-24 3-6 4-9 10-10 17-1 12 4 22 10 32 14 27 31 52 46 79 7 14 13 29 8 46-7 21 3 36 17 49 10 10 21 19 31 29 16 15 33 28 50 42 16 13 33 25 49 38 3 2 5 2 8-1 8-7 18-13 27-19 8-7 15-14 20-24 6-15 15-29 18-45 3-17 4-33 2-50-1-6 0-13 0-19-1-15-4-30-6-44-1-11-3-22-4-33-1-12-2-24-2-36 0-25 4-49 11-73 7-25 18-48 29-71 3-5 6-8 13-8 23 0 35-24 30-43-2-11-3-21-7-31-1-2 0-3 0-5 14-30 27-60 40-90 2-4 4-6-2-9z m77 50c-4-1-7 0-11 0-4 0-6-2-7-6-5-13-16-21-27-19-12 3-21 11-24 24-6 22-10 44-10 67-1 15-4 31-12 44-8 14-18 27-27 40-16 22-29 46-38 72-3 8-4 17-4 25-1 13-1 27 0 40 1 19 2 37 5 55 4 24 8 48 10 72 1 8 3 17 3 25 0 20-3 39-12 57-8 17-15 34-22 51-4 10-5 22-5 33 0 7 7 16 15 18 16 6 29 0 42-9 12-7 23-14 36-18 17-5 32-2 47 9 7 6 15 11 25 11 9 1 18-2 23-10 8-12 12-25 16-39 3-7 6-14 10-21 2-5 7-7 13-8 9 0 19-1 28 5 2 1 5 1 6-1 1-3 0-5-3-7-13-8-26-8-40-2-10 3-14 13-19 22-6 15-9 32-19 44-8 11-15 12-26 5-9-6-18-13-29-18-10-4-21-3-32 0-18 5-32 16-48 25-7 5-15 8-24 4-9-4-13-11-12-21 3-15 9-29 15-43 6-14 13-27 18-42 2-6 3-13 4-20 0-4 1-4 4-4 19 2 37 6 56 8 17 2 34 4 51 5 15 1 29 3 44 3 9 0 19-1 29-1 3 0 5-1 5-3 1-3-2-3-4-4-3-1-7-1-10-1-17 0-34 0-51 0-12-1-23-3-35-4-9 0-18-1-27-2-20-3-39-6-58-10-3-1-3-2-3-4 1-11 0-22-1-32-2-18-4-35-8-52-2-12-3-24-5-36-2-15-3-31-4-47-1-16 1-32 3-48 4-24 17-42 29-62 10-15 20-29 30-45 11-18 19-38 20-60 1-13 1-26 3-39 3-12 7-24 13-35 2-5 10-8 17-6 5 1 8 5 10 12 4 8-1 13-7 17-10 7-15 18-17 31-1 6 1 14 4 20 2 3 5 4 9 3 13-5 24-20 24-34v-18c0-4-1-7 3-9 5-1 9-1 12 3 4 6 7 12 8 19 1 11-4 19-9 27-9 18-21 34-35 48-21 22-42 44-57 71-5 8-8 18-12 27-6 18-9 37-8 56 1 22 2 44 3 66 2 24 5 48 12 71 3 7 7 12 15 14 7 1 12-4 16-9 5-7 9-14 14-20 0-1 0-3 2-3 1 1 2 2 2 3 1 9 2 17 3 25 1 7 3 13 5 20 2 6 4 12 11 13 6 0 12-2 16-8 5-6 10-13 15-19 4 3 4 8 5 13 1 6 2 12 4 17 1 3 3 6 6 5 2-1 4-4 3-8-3-9-4-18-8-27-4-11-10-14-18-4-5 6-11 11-15 18-2 3-4 4-6 3-3 0-4-2-4-4-3-10-4-21-4-31-1-7-4-14-7-20-3-5-8-5-13-2-5 3-9 9-12 14-3 3-6 7-8 10-4 5-9 5-11-1-4-10-7-21-9-32-2-16-3-33-4-49-2-15-4-29-5-44 0-12 0-24 3-36 2-9 3-19 5-28 2-13 10-23 17-34 12-18 27-34 41-51 13-14 26-28 37-44 9-12 17-26 19-43 2-11-8-29-18-33z m18 195c-16-17-34-32-50-49-5-5-9-4-12 2-13 24-25 48-35 73 0 3 0 4 1 6 8 19 18 37 27 57 12 27 29 52 46 77 12 17 24 35 39 51 11 11 20 25 31 35 13 13 25 26 39 37 1 1 3 2 4 3 5-10 1-16-4-22-9-11-13-24-18-36l-9-24c-8-20-12-41-18-61-7-25-15-49-20-74-4-19-6-38-11-57-2-7-4-13-10-18z m117-127c-2-19-6-38-9-56-6-26-17-50-28-73-2-5-6-9-11-9-6 0-9 4-11 9-10 20-20 40-27 61-5 15-6 30-8 45-4 26-6 53-6 83-1 15 1 34 2 53 4 50 13 99 26 147 6 20 10 41 16 61 8 23 18 46 30 68 1 2 1 4 2 5 2 2 2 6 5 4 2-1 5-3 4-8-6-21-5-42-5-63 1-8 1-17 1-25 0-22 1-43 2-65 1-18 1-36 2-54 1-19 2-38 4-57 2-14 2-28 4-43 2-16 5-31 6-48 1-11 2-23 1-35z m116 66c-1-21-5-41-11-60-4-14-8-28-15-40-7-9-14-18-22-26-3-3-4-2-5 1-4 23-17 41-27 61-8 17-16 33-26 49-4 5-4 11-4 17-1 14-4 27-5 41-1 13-3 27-5 40-4 35-5 71-6 107-1 36 0 73 0 110 0 6 1 12 2 18 0 4 2 4 5 4 4 0 3-3 3-6-4-39-4-79-3-119 1-22 2-44 4-66 2-36 10-71 18-105 7-31 19-60 35-86 6-11 13-21 21-30 6 13 9 27 14 41 8 23 8 47 8 71-1 14-2 28-4 42-2 14-3 28-7 43-1 3-1 7-2 11 2 0 2-2 3-3 8-18 17-36 26-54 2-4 2-9 2-13 1-16 2-32 1-48z m123-23c-25 1-47 8-66 25-9 8-17 16-26 24-12 12-22 28-31 43-10 18-20 36-30 55-7 14-12 29-15 45-1 5-4 10-5 16-9 27-19 54-30 80-5 12-8 26-14 38-3 5-6 10-8 16 0 2 0 4 2 4 4 1 7 4 11 6 8-22 16-44 24-66 9-23 17-48 27-71 12-28 23-56 38-83 5-9 9-18 14-27 13-27 30-51 53-69 8-6 18-9 28-11 4-1 7 0 10-2 4-1 4 0 5 4 0 19-1 38-4 57-5 32-17 62-32 90-7 13-15 24-22 36-6 11-15 21-23 31-9 11-17 23-27 33-17 16-32 33-48 49-11 10-21 22-32 32-4 4-5 8-3 14 0 1 1 3 1 5 3-2 5-4 7-6 15-16 33-30 49-46 15-15 31-31 47-46 26-24 47-52 64-83 12-21 24-43 31-67 5-18 10-36 10-55 0-21 0-43 0-64 0-5-1-7-5-7z m-124 164c4 8 6 16 8 24 1 2 1 3 2 3 2 1 2-1 2-2 12-21 24-41 36-62l2-5c4-7 3-14 0-21-4-8-6-17-9-27-15 22-28 45-40 69-3 6-5 13-1 21z m-5-3h-2c-4 9-9 17-12 26-6 12-10 25-16 37-4 10-2 20-1 30 1 3 2 7 3 11 7-13 14-25 21-37 5-8 10-17 15-25 3-4 4-9 2-14-3-9-8-18-10-28z m50-89l10 35c1 1 1 1 2 2 6-10 11-21 17-31 1-2 1-5 4-4 4 2 1 4 0 6-5 11-10 21-16 31 0 1-1 2-1 3 11-2 21-4 31-6 5-1 7-4 8-9 3-15 5-30 5-46 0-7 1-13 1-20 0-4-1-5-4-3-4 2-9 3-14 4-20 4-32 18-43 35-1 1 0 2 0 3z m40 42l-22 4c-6 1-8 6-11 10-11 20-23 40-34 59-1 2-2 4-3 6 17-5 34-9 50-14 1 0 3-2 4-3 9-16 17-33 22-52l0-1c3-10 3-10-6-9z m-44 78c-8 2-16 5-25 7-6 2-8 7-11 11-11 19-22 37-33 55-1 1-1 2-2 4 13-2 25-3 35-8 6-3 10-11 15-16 8-10 15-20 22-30 7-9 13-19 20-29-8 2-15 4-21 6z m-40 75c-13 4-23 6-34 9-3 1-4 4-5 6-4 10-12 19-17 28-1 2-2 4-3 3-2-2-2-4-1-5 4-6 6-11 10-16l11-18c2-2 2-5 1-8-2-6-2-13-4-22-17 33-26 66-36 100 28-23 51-51 78-77z m-111 125c-6-1-14-9-14-16 0-7 8-17 15-16 6 0 15 9 15 16 0 7-9 16-16 16z m-362-259c-9-8-15-19-18-30-5-13-5-26 2-38 7-12 17-19 29-22-10 14-15 31-14 49s7 35 22 48c-9 1-16-2-21-7z m308 207l7 14-2 1c-13-19-29-34-43-52-11-13-21-26-31-40-11-16-22-33-33-49-12-18-23-36-32-56-6-11-11-24-17-36-4-7-5-14-1-21 4-9 8-18 13-26 4-9 7-18 12-27 2-3 4-5 8-1 5 4 9 8 13 12 12 11 23 22 34 33 5 4 8 8 8 15 1 6 2 11 3 17 3 19 8 37 12 55 6 27 12 53 20 78 9 28 17 57 29 83z m-137-196c6 9 11 18 15 28 4 12 13 18 24 23 5 2 11 4 16 6-1-8-5-16-8-23-3-8-5-17-8-25-1-3-3-5-6-7-12-6-25-10-37-17 0 6 2 11 4 15z m53-58c-8-10-19-19-29-28-7-8-9-7-14 2-5 12-12 24-17 37-2 4-3 8-4 12-1 9 0 10 7 13 6 3 13 6 18 8 6 3 12 6 20 10-4-16-8-29-12-43-2-6-4-12-6-18-1-2-2-5 1-6 3-2 4 1 4 4 6 17 12 35 18 53 6-9 11-18 16-26 6-10 6-9-2-18z m14 14c-10 12-19 23-22 38-1 3-1 6 0 8 5 15 10 29 16 45 6-10 10-18 15-27 4 1 2 5 5 7-7-23-9-47-14-71z m14 73c-5 10-10 19-15 27-1 1-1 3-1 4 8 17 12 36 22 53 3 4 6 9 7 15 1 1 1 3 0 4-2 1-2-1-3-2-6-7-9-15-13-22-6-10-11-20-15-31-1-5-4-8-9-10-8-4-16-8-23-12 28 46 59 89 95 128-19-49-33-101-45-154z m-368 50c4 0 8 1 11 2 13 2 26 5 38 9 3 0 7 2 7 5 0 3-2 7-5 9-15 9-30 17-44 27-7 4-8 7-3 18 3 6 6 7 13 4 12-6 24-13 36-18 13-5 25-4 37 4 3 2 6 5 5 9-1 3-5 4-9 4-22-1-41 8-58 22-10 7-21 14-33 12h-4c-10 0-20-2-27-10-3-3-4-6-2-10 2-3 3-6 5-8 3-4 2-6 0-9-3-3-5-7-8-9-4-4-2-6 1-8 5-3 9-5 14-7 2-1 4-1 3-5-3-8-3-18-1-27 1-2 0-3-3-4-5 0-10-1-16-2-3 0-6-1-6-4 0-4 3-4 6-4 5-1 10-1 14 0 3 0 4-1 4-5l0-13c0-2 1-4 3-5 2-1 3 1 5 2 5 4 8 10 10 16 2 4 4 5 7 5z m0 36c14-6 27-11 40-17-11-5-22-10-34-9-3 0-6-3-8 0-2 3-2 7-2 11 1 4 2 8 2 12 0 2 0 3 2 3z m-10 25c-5 3-11 4-16 7-2 2-2 4 0 6 7 2 14 4 20 6 4 0 5-2 4-5-1-4-3-8-5-12 0-2-1-3-3-2z m225-288c-6 10-17 12-27 6-10-8-15-19-17-31-3-10-4-19-1-29 2-5 4-10 8-14 9-7 21-5 29 5 8 12 14 25 13 41 2 8-1 15-5 22z m-19-54c-3-3-6-4-10-2-4 2-7 6-7 11-1 3 0 5 0 6-1 14 4 23 13 31 7 7 17 2 18-8 2-15-2-28-14-38z m-97 244c-1 8-6 15-13 16-8 0-15-3-20-7-14-11-30-14-46-16-3 0-4 2-4 5 0 4 3 6 6 6 5 0 9 3 14 4 7 2 14 5 18 13 3 6 2 8-4 9-3 1-6 1-9 0-11-3-22-9-33-14-6-4-10-9-13-15-2-5-1-9 2-12 3-3 6-6 8-9 2-2 2-4 0-6-2-3-5-5-4-10 0-11 8-20 19-20 8 0 17 0 25 1 9 1 18 5 25 10 4 2 6 5 5 10-2 4-5 6-9 6-8 1-14-3-21-6-7-2-14-4-22-1-2 1-5 2-5 5 0 3 3 3 5 4 14 6 28 9 43 7 9 2 18-2 27 4 6 5 8 9 6 16z m-29 167c5-5 11-9 16-14 3-3 4-1 4 2 1 7-2 11-6 15-8 7-15 14-22 22-1 1-5 2-1 4 3 2 4 6 8 3 5-4 9-8 13-13 14-15 31-27 43-44 1-2 4-4 6-2 3 2 3 5 1 8-1 1-1 2-3 4-4 5-9 10-13 15-11 15-24 27-36 38-4 3-4 5 0 7 2 2 4 1 6-1 11-7 19-16 28-25 2-2 3-3 5-4 4-2 5 1 6 3 0 3-1 4-2 5-9 12-20 21-31 31-4 3-9 6-14 3-11-8-20-16-30-24-4-3-4-7 0-10 7-8 14-15 22-23z m-73-377c-1 1-3 2-5 2-10 4-21 8-29 15-4 2-7 3-11 1-3-2-7-5-11-5-3 0-3-2-3-5l-2-44c1-3 2-6 4-8 4-3 8-3 13-3 4 1 5 4 7 8 2-6 5-11 9-15 4-3 7-6 12-3 6 3 11 7 12 14 0 8-5 14-8 22 5-1 8 1 12 3 7 5 7 12 0 18z m458 74c-2 14-3 27-4 41-2 23-3 46-4 68 0 38 0 76-1 114 0 15-2 31-1 46 0 1-1 1-1 3-1-1-1-2-1-2-8-20-17-40-23-61-3-8-7-16-9-25-5-20-10-40-13-60-2-11-5-22-7-34-2-13-3-26-5-39-1-17-4-35-4-52-1-33 0-66 5-99 1-10 2-20 4-31 2-12 5-24 9-36 6-15 13-30 22-44 3 6 6 11 8 16 5 13 11 26 16 39 6 14 10 29 12 44 2 9 2 18 3 26 2 12 3 23 1 34-4 17-5 35-7 52z m-7 36c0-15 3-30 5-44 1-8 0-16 2-24-8 6-14 12-21 16-7 4-12 9-16 15-1 2-2 3-2 5-1 21 2 43 1 66 11-8 20-15 29-23 2-2 2-7 2-11z m-13 170c3 1 8-3 8-7 0-7 0-13 0-20-1-25 0-51 1-76 1-14 0-28 2-41 0-2 0-4 0-7-8 3-13 9-19 13l-1 1c-9 5-9 13-7 22 2 8 2 16 3 24 1 16 3 32 5 48 2 12 5 24 5 37 0 2 0 5 3 6z m-40-109c5 32 15 63 22 94 1 4 3 7 4 11 1 3 5 4 8 3 3-1 1-4 1-5-4-21-6-42-9-63-2-16-4-33-5-49 0-4-1-7-3-9-6-7-13-12-20-17l-2 1c1 11 3 23 4 34z m-7-58c0 9 3 15 10 21 5 4 10 9 16 14l1-1c-2-19 0-37-3-56 0-4 0-8 0-12 1-5 0-9-4-11-7-4-11-11-19-14-2-1-3-2-4 2 0 19 2 38 3 57z m2-134c0 5-2 9-2 14 0 14-2 28-1 42 0 0 0 0 0 0-4 11 2 16 10 20 5 3 10 7 16 11 1-6 1-12 2-17 0-14 0-27 1-41 0-1 0-2 0-3 2-15 3-13-10-22-4-2-7-4-11-6-3-2-5-2-5 2z m64-23c-1-6-2-12-3-18-4-10-13-14-22-5-3 3-5 8-8 12-2-11-6-15-15-15-4 0-7 3-8 6-5 9-6 19-7 30 0 2 1 3 3 4l22 13c2 1 3 1 5 0 10-6 20-13 30-19 3-2 4-5 3-8z m3 19l0-2c-2-7-2-6-8-4-9 4-17 11-25 17-3 2-5 5-5 8l-2 67c0 1 0 2 0 4 11-10 21-19 32-26 7-4 8-9 9-16 1-16 0-32-1-48z" />
<glyph glyph-name="owl-look" horiz-adv-x="1000" unicode="&#xe816;" d="M928 490c-17 8-33 17-49 25-107 50-217 83-335 77-57-3-111-17-159-48-24-15-44-35-58-61-4-8-3-10 6-12 41-11 83-15 126-17 39-2 79-1 118 2 31 3 61 9 92 15 7 2 7 5 4 11-11 22-27 39-46 54-2 1-5 2-7 2-24 0-49 2-76-4 29-10 54-19 78-34-75-31-192-26-243 1 50 29 103 42 159 47 105 10 205-10 302-52 13-5 17-11 15-25-16-148-125-272-269-308-7-2-14-6-23-2 49 103 107 195 222 239-15 9-29 3-45 4 22 12 46 16 67 32-22 3-40-1-63-2 29 16 57 24 80 45-31-8-61-17-92-25-11-3-15-7-13-18 2-9-2-17-5-24-15-38-55-68-89-67-19 1-32 11-36 27-3 8-1 13 7 15 5 1 11 10 18-1 6-11 17-13 29-11 27 4 54 33 57 60 0 6-1 9-8 7-40-15-80-26-119-43-9-4-14-9-16-19-20-86-27-173-31-261 0-10 4-12 12-11 22 2 43 5 64 10 171 40 305 181 335 353 2 9-1 14-9 19z m-458-302c-6 65-12 130-28 193-1 8-5 13-12 17-39 18-82 28-122 44-7 2-8-1-7-7 2-28 30-57 58-61 11-1 21 2 28 12 1 3 2 6 8 5 16-3 21-12 13-27-6-12-16-17-29-19-45-4-102 49-99 94 1 10-2 12-9 13-8 2-14 5-21 7-25 7-50 13-74 20 22-21 50-29 75-45-19 3-37 3-55 1 18-15 41-19 64-31-17-1-30 5-45-4 115-44 173-136 222-242-6 1-8 1-11 2-62 13-117 41-164 83-68 62-107 139-117 230-1 8-4 16 8 20 57 23 115 44 176 52 14 2 31 0 42 6 29 16 59 29 91 39-26 3-53 4-80 1-110-12-213-48-310-101-9-5-11-10-9-20 25-127 92-225 200-295 60-39 125-61 197-67 11-1 14 2 13 13-1 22-2 45-3 67z" />
<glyph glyph-name="phoenix" horiz-adv-x="1000" unicode="&#xe817;" d="M182 152c-68 9-98 53-116 117 82-69 169-92 267-50-97-19-186-6-270 63h258c-31 9-62 14-92 27-60 27-82 71-64 135 25 85 83 150 142 214-52-132-25-244 79-339-57 71-102 147-90 242 11 93 67 160 141 224 0-18 0-28 0-38-1-133-2-266-3-399 0-8-6-20 5-24 9-4 20 2 28 8 14 13 29 24 27 48-2 24 19 42 42 42 22-1 40-19 40-41 0-24-18-43-42-42-17 1-28-6-39-17-10-11-22-24-16-38 5-11 22-5 33-5 137 1 273 2 410 3 3 0 6 0 16-1-62-73-130-129-223-140-95-12-171 33-241 90 42-49 92-83 155-98 63-15 124-2 184 19-60-55-121-109-200-137-78-28-131-1-156 78-8 24-13 48-18 73v-251c-55 33-79 134-64 263-43-68-28-157 44-262-55 4-95 43-114 111-27-15-54-28-85-16-30 11-32 15-9 37 48 49 98 98 146 147 6 6 15 10 15 21-13 2-17-8-22-14-51-50-102-100-151-151-16-17-23-11-30 7-13 28-10 48 13 94z m358 281c30 17 56 29 86 39-6-32-23-56-36-85-11 21-20 40-50 46z" />
<glyph glyph-name="robot-face" horiz-adv-x="1000" unicode="&#xe818;" d="M727 150l4 8c7 12 12 23 17 36h-87c-33-57-93-95-161-95s-128 38-161 95h-87c5-13 10-24 17-36l4-8-44-60c-2-2-2-6 0-8l65-68c1-1 5-2 7 0l57 47 8-5c20-12 42-21 65-28l9-2 8-76c1-2 3-5 6-5h91c3 0 6 2 6 5l9 76 9 2c22 7 44 16 64 28l8 5 57-47c2-2 6-1 8 0l65 68c1 2 2 6 0 8l-44 60z m-368 246c-22 0-40-19-40-43s18-42 40-42 41 19 41 42c0 24-18 43-41 43z m-125 203l-104 94c11 15 10 37-4 51-14 15-38 15-52 0-15-16-15-40 0-55 13-14 33-15 48-4l90-109 22 23z m407-203c-23 0-41-19-41-43s18-42 41-42c22 0 40 19 40 42 0 24-18 43-40 43z m193-30l-63 8c-6 25-15 49-28 71l40 52c6 8 5 20-2 27l-65 68c-6 7-18 8-26 2l-50-41c-21 12-43 22-67 29l-8 65c-1 10-10 19-19 19h-92c-9 0-18-9-19-19l-8-65c-24-7-46-17-67-29l-50 40c-8 7-19 6-26-1l-65-68c-7-7-8-19-2-27l39-53c-12-21-21-45-28-70l-62-8c-10-1-18-11-18-21v-95c0-10 8-20 18-21l63-8h542l63 8c10 2 18 11 18 21v96c0 10-8 19-18 20z m-393-24c0-2-2-4-4-5l-15-1c-1-6-4-12-6-17l9-12c1-1 1-4-1-6l-15-16c-1-1-4-1-6 0l-11 9c-5-3-10-5-16-6l-2-16c0-2-2-4-4-4h-21c-2 0-4 2-5 4l-1 16c-6 1-11 3-16 6l-11-9c-2-1-5-1-6 0l-15 16c-2 2-2 5-1 6l9 12c-2 6-5 11-6 17l-15 2c-2 0-4 2-4 4v22c0 3 2 5 4 5l15 2c1 6 4 11 6 16l-9 12c-1 2-1 5 1 6l15 16c1 2 4 2 6 0l11-9c5 3 10 5 16 7l2 15c0 2 2 4 4 4h21c2 0 4-2 5-4l1-15c6-2 11-4 16-7l11 9c2 2 5 1 6 0l15-16c2-1 2-4 1-6l-9-12c2-5 5-10 6-16l15-2c2 0 4-2 4-5h0l0-22z m281 0c0-2-2-4-4-5l-14-1c-2-6-4-12-7-17l9-12c1-1 1-4 0-6l-15-16c-2-1-5-1-6 0l-12 9c-5-3-10-5-15-6l-2-16c0-2-2-4-5-4h-21c-2 0-4 2-4 4l-2 16c-5 1-11 3-15 6l-12-9c-2-1-4-1-6 0l-15 16c-1 2-2 5 0 6l9 12c-3 5-5 11-7 17l-14 1c-2 1-4 3-4 5v22c0 3 2 5 4 5l14 2c2 6 4 11 7 16l-9 12c-1 2-1 5 0 6l15 16c2 2 5 2 6 0l12-9c4 3 10 5 15 7l2 15c0 2 2 4 4 4h21c3 0 5-2 5-4l2-15c5-2 10-4 15-7l12 9c1 2 4 1 6 0l15-16c1-1 1-4 0-6l-9-12c3-5 5-10 7-16l14-2c2 0 4-2 4-5h0l0-22z m205 402c-15 15-39 15-53 0-13-14-15-36-4-51l-104-94 22-23 90 109c15-12 35-11 49 3 14 16 14 41 0 56z" />
<glyph glyph-name="sand-clock" horiz-adv-x="1000" unicode="&#xe819;" d="M465 434c-26 39-47 82-59 127-2 6-1 13 2 18s8 9 13 9h158c5 0 10-3 13-9 3-5 4-12 2-18-12-45-33-88-59-127-12-18-19-41-19-64 0-11-7-20-16-20-9 0-16 9-16 20 0 23-7 46-19 64z m51-144c0 11-7 20-16 20-9 0-16-9-16-20 0-28-14-57-39-80-53-49-93-102-119-158-2-7-2-14 1-20 2-6 8-10 13-10h320c6 0 11 4 14 10 3 6 3 13 0 20-26 56-66 109-119 158-25 23-39 52-39 80z m296-338c0-22-15-40-32-40h-560c-17 0-32 18-32 40 0 22 15 40 32 40h10c11 155 84 274 140 358-56 84-129 203-140 358h-9c-18 0-32 18-32 40 0 22 14 40 32 40h559c17 0 32-18 32-40 0-22-15-40-32-40h-10c-11-155-84-274-140-358 56-84 129-203 140-358h9c18 0 33-18 33-40z m-106 40c-12 140-85 248-140 328l-3 4c-10 15-10 37 0 52l3 4c55 80 128 188 140 328h-412c12-140 85-248 140-328l3-4c10-15 10-37 0-52l-3-4c-55-80-128-188-140-328h412z" />
<glyph glyph-name="shield-alt" horiz-adv-x="1000" unicode="&#xe81a;" d="M502-88h-4c-1 1-2 2-3 2-52 26-100 58-144 96-62 53-113 115-146 190-22 51-36 104-36 159-1 106 0 212-1 318 0 19 7 31 21 42 21 17 45 28 71 36 49 17 100 25 151 29 13 1 25 0 38 4h102c19-2 37-4 56-6 49-4 97-13 144-31 25-10 50-21 70-42 7-7 10-15 10-25 0-105 1-210 0-315 0-63-14-124-42-181-43-89-109-157-188-215-31-23-65-43-99-61z m-2 443l260 0c22 0 22 0 22 22 0 85 0 171 0 257 0 8-3 14-7 20-18 19-40 29-63 38-66 24-135 29-205 31-7 0-7-3-7-9 0-32 0-65 0-98l0-261c-91 0-183 0-274 0-7 0-7-3-7-8 3-62 22-120 54-173 46-76 111-132 187-175 12-7 25-14 40-20l0 376z" />
<glyph glyph-name="ship-wheel" horiz-adv-x="1000" unicode="&#xe81b;" d="M934 365c-6 16-19 23-35 23-23 1-45 1-68 1-5 0-8 1-8 7-8 55-29 105-63 150-4 5-3 8 2 12 15 15 30 30 45 46 17 17 18 40 3 55-16 16-39 16-56-1-15-15-30-30-45-45-5-6-9-6-15-1-44 33-93 53-147 61-7 1-9 3-9 9 0 24 1 48 0 72-1 16-14 30-30 33-25 5-45-12-46-39 0-22 0-44 0-66 0-6-1-8-7-9-56-8-106-28-150-62-5-4-8-4-12 0-16 17-32 32-48 48-16 16-39 16-54 1-16-16-15-39 0-55 16-15 31-30 46-45 6-6 7-9 2-16-33-43-53-92-61-146-1-8-4-9-11-9-24 0-48 0-71-1-20-2-34-19-34-39 1-21 17-36 38-37 11 0 22 0 33 0v0c12 0 25 0 37 0 4 0 7-1 7-6 8-56 29-107 63-152 4-5 3-7-1-11-15-15-30-30-46-45-3-4-7-8-10-13-8-17-3-36 12-48 14-11 35-10 48 3 17 16 34 33 50 49 4 5 7 5 12 1 44-33 94-54 149-62 6-1 8-3 8-9 0-22 0-44 0-67 0-15 6-27 20-34 25-14 54 2 56 30 1 24 0 48 0 72 0 5 1 7 7 8 56 8 106 28 151 62 4 4 7 4 11 0 16-16 31-32 47-48 10-9 21-14 35-12 15 3 25 12 30 26 5 16 0 29-10 40-16 16-32 31-48 47-4 4-5 7-1 12 34 44 54 94 63 149 1 7 4 9 10 8 22 0 44 1 66 0 12 0 22 5 30 14 10 12 11 25 5 39z m-270-13c0-14-2-27-5-40 26 1 52 0 78 1 9 0 9-4 8-11-7-33-20-63-38-91-4-7-6-8-12-2-18 19-36 37-55 56-13-22-32-41-54-54 18-19 36-37 55-55 6-6 5-8-1-12-28-18-58-31-91-38-9-2-11 1-11 10 0 25 0 50 0 75-12-2-25-4-38-4-13 0-26 2-38 5 0-27 0-53 0-79 0-4 1-9-6-8-38 7-72 22-103 45 21 21 41 41 62 61-22 14-41 32-55 54-18-19-37-38-56-56-3-4-5-6-9 0-20 29-34 62-40 97-2 8 2 7 7 7h78c-2 11-4 23-4 36 0 14 2 27 5 40l-78 0c-7 0-10 1-8 9 7 33 20 64 38 92 4 6 7 8 13 1 18-19 36-37 55-55 13 22 32 40 54 54-19 18-37 38-57 56-5 5-4 7 1 11 29 19 60 32 94 39 7 1 9 0 9-8 0-26 0-53 0-79 13 3 27 5 41 5 12 0 24-2 35-4 0 26 0 51 0 77 0 8 2 10 10 8 33-7 64-19 92-38 7-5 6-7 1-12-18-17-35-35-52-52-1-1-2-2-4-3 22-13 41-32 55-54 15 16 31 31 46 47 16 16 16 16 28-4 15-25 25-51 31-79 2-11 2-11-9-11-26 0-51-1-77 0 3-12 5-25 5-37z m-162 104c-60 1-108-46-108-107-1-57 48-105 106-105 60 0 107 47 107 107 0 57-48 105-105 105z m47-65c-25 7-48 4-70-11-21-15-31-37-32-65-12 15-13 30-11 46 6 28 23 46 50 52 25 6 46-2 63-22z" />
<glyph glyph-name="skull-danger" horiz-adv-x="1000" unicode="&#xe81c;" d="M710 188c15-8 30-15 46-19 23-6 44 8 48 30 4 23-12 45-36 47-4 0-9 0-15 0 3 3 5 6 7 9 9 14 9 29 0 43-9 15-23 20-39 18-18-3-26-15-32-30-4-13-6-28-8-42-1-5-3-9-8-11-124-63-248-127-371-191-5-2-8-2-12 0-13 6-25 13-38 17-9 3-18 5-28 3-15-3-27-18-28-34-2-19 8-35 25-41 7-3 15-3 24-3-2-3-4-5-6-7-10-14-11-32-2-46 9-14 25-21 42-18 17 4 25 17 30 32 4 13 6 27 8 41 1 5 3 8 8 10 124 64 248 128 372 191 5 3 9 3 13 1z m-363 199c12-4 25-6 39-8 3 0 5-1 5-5l6-79c0-10 0-10 10-11 31-2 63-4 97-4 12-1 28 0 43 1 16 1 32 3 48 3 7 1 9 3 10 11 1 26 3 52 4 78 0 4 2 6 6 6 10 1 20 3 30 6 23 6 44 17 56 40 17 32 12 74-12 102-2 2-4 5-4 9 2 17 3 33 4 50 1 20 1 40-3 59-20 85-104 146-194 142-44-1-84-17-118-46-40-34-63-77-64-131 0-23 3-46 4-69 1-6 0-11-4-15-34-38-31-117 37-139z m243 171c42 0 75-33 75-75 1-41-33-75-74-75-42-1-76 33-76 75 0 41 34 75 75 75z m-81-207c3 5 8 5 11 0 4-6 4-13 4-20 0-6 0-12-4-18-3-6-8-6-11 0-6 12-6 25 0 38z m-19 0c4-6 5-13 5-20 0-6-1-12-4-18-4-6-8-5-11 0-6 8-6 29 0 38 3 5 7 5 10 0z m-79 207c41 0 74-35 74-76 0-41-35-75-77-74-41 0-74 34-73 75 0 43 34 76 76 75z m-162-388c15 5 28 12 42 18 3 2 6 2 11 0 43-22 86-44 129-67 3-1 5-3 8-1 18 9 36 18 54 27-2 3-5 3-7 4-53 28-106 55-159 82-5 2-7 6-8 11-2 16-4 31-10 46-4 11-10 20-22 24-15 6-34 1-44-11-12-14-13-33-3-47 2-3 4-6 7-11-4 1-7 1-9 1-28 2-48-24-41-50 7-24 27-34 52-26z m509-108c-17-4-32-12-48-20-4-2-7-2-11 0-44 23-87 45-130 67-3 1-5 4-9 2-17-9-35-18-53-28l4-3c53-27 105-54 158-80 10-5 14-11 15-21 2-16 5-32 13-47 9-16 27-23 45-17 18 6 29 23 27 41-1 11-7 20-14 29 7 0 12-1 18 0 21 5 35 26 31 47-5 22-24 35-46 30z m-355 200c0-10 5-16 14-16 8 0 13 6 13 16 0 15 0 15-16 16-12 1-11 3-11-10l0-6z m47 14c-13 0-13 0-13-13v-2c0-13 4-19 13-19 9 0 13 6 13 19 0 14 0 14-13 15z m136 2l-3 0c-13-2-15-4-13-18 2-6 6-10 12-10 10-1 15 5 15 19-1 11 2 10-11 9z m-116-29c0-7 6-12 12-12 7-1 13 4 14 11 1 4 1 8 1 12 0 14 0 14-14 14-3 0-6 0-9 1-3 0-4-2-4-5 0-7 0-14 0-21z m53 25c-5 0-10 0-15 0-3 0-5 0-5-3 0-8 0-16 1-24 1-7 7-11 14-10 6 0 11 5 12 12l0 3 0 18c0 4-2 5-7 4z m28 2c-14-1-14-1-14-15 0-3 0-5 0-7 1-8 7-13 14-12 6 0 12 5 12 12 0 3 0 7 0 10 0 12 0 12-12 12z" />
<glyph glyph-name="skull-face" horiz-adv-x="1000" unicode="&#xe81d;" d="M899 553c-1 26-5 51-10 76-3 11-8 21-14 32-16 30-38 55-64 77-30 27-64 47-100 63-42 19-86 32-131 40-5 1-10 1-15 2l-30-31 51-25-191-109 96 105-66 32 24 34c-33-2-66-7-99-16-47-13-91-32-131-62-48-35-83-81-106-136-5-13-8-26-10-40 0-5-1-10-1-14 0-2-1-4-1-5v-28c0-3 1-6 1-9 3-42 11-82 23-122 0-1 1-3 1-4 2-7 5-12 11-16 11-8 18-20 23-32 4-9 7-18 11-27 1-2 1-5 3-7 5-11 5-23 3-34-3-17-8-33-13-49-4-12-8-25-12-37-2-7-3-15-2-23 1-8 2-15 3-23 1-5 3-9 5-13 3-7 9-12 17-13 13-2 27-3 40 1 5 1 10 3 13 7 1 1 3 2 4 2 6 1 13 2 19 2 17 1 34-1 51-7 7-3 13-7 18-12 5-5 8-11 9-18 0-2-1-4-1-6-2-4-4-8-5-12-2-10 4-18 14-19 8-1 9 0 11 8 1 5 1 11 2 16 1 4 2 7 4 11 1 3 4 5 7 6 4 1 7-1 8-5 1-8 2-17 1-25 0-3-1-6-3-8-2-5-3-10-3-15 0-3 1-5 4-5 2-1 4-2 6-2 5-1 10-3 14-6 3-2 6-4 8-6 4-2 9-4 14-3 3 0 4 1 5 4 0 4 1 8 1 12 0 5 1 10 1 15 0 2 1 4 2 7 0 2 2 4 3 5 4 3 8 2 10-2 1-2 2-4 2-6 0-4-1-8-1-12 0-3-1-7 1-10 4-10 13-14 23-12 2 1 4 1 6 2 7 3 11 8 11 16 1 11 3 22 4 33 0 2 1 4 1 6 3 0 3-2 4-3 1-4 2-9 4-13 0-2 1-3 2-5 1 0 2-2 2-3 4-8 6-17 7-26 0-4 2-6 6-7 5-2 11-2 17-1 4 1 8 3 12 5 6 5 8 10 5 17 0 2-1 3-1 5 3 1 5-1 7-1 2-1 4-2 6-2l2-4c4-9 12-14 22-16 6-1 11 1 13 7 1 4 2 8 2 12 0 7 0 14 0 21 0 6 1 12 4 17 1 3 3 6 6 8 4 4 8 3 11-2 3-4 4-10 4-15l1-15c0-4 1-8 4-11 3-6 9-9 16-8 12 2 21 9 25 21 2 4 2 8 1 12l-4 13c-1 6-1 12 3 17 5 7 10 13 17 17 12 9 26 14 40 17 6 1 12 3 18 2 5-1 9-2 13-4 6-3 12-6 18-8 4-2 7-3 11-4 4-1 9-1 14 1 7 3 14 7 21 10 3 2 7 4 10 6 6 6 7 11 5 19-5 16-10 31-15 47-4 16-7 32-8 48-1 19 3 37 9 55 0 0 0 1 0 1 6 11 10 23 14 35 1 3 2 6 3 10 4 10 10 19 20 24 20 12 32 29 39 51 5 14 8 29 9 44 1 5 1 11 1 16 0 2 1 3 1 5v31c-1 2-1 4-1 6z m-477-213c-20-20-44-32-72-37-28-5-55-2-81 6-27 9-43 28-50 54-5 20-4 39 5 58 9 19 24 32 45 36 3 1 6 1 9 1 8 1 15 1 22 1 21 0 40-1 59-6 12-3 23-7 33-14 12-6 23-13 33-22 6-5 11-9 15-15 8-11 9-22 3-34-5-11-13-19-21-28z m127-123c-3 0-7 0-11 1-7 1-12 5-14 12-2 3-3 6-5 9-4 6-9 10-16 10-2 1-3 1-5 1-9 0-15-4-19-11-2-3-3-6-5-9-6-13-20-15-29-14-7 1-11 6-11 13 0 6 2 11 5 16 6 13 13 25 21 38 6 11 13 22 19 34 1 1 2 2 3 4 3 4 7 7 13 7h4c9 1 14-3 18-11 13-23 26-46 39-69 3-5 5-10 6-16 1-9-4-15-13-15z m212 133c-9-20-24-34-45-41-23-7-46-10-69-7-38 3-70 19-94 50-4 5-8 10-11 16-6 12-5 23 3 34 5 7 12 13 19 18 11 9 23 16 35 23 15 8 30 12 46 14 13 2 26 2 43 2 6 0 16 0 25-1 16-2 29-9 40-22 8-10 13-22 15-35 2-18 1-35-7-51z m-49-364c-4 11-5 23-6 35 0 23 0 45 0 68 0 5 0 10-1 16 0 5-1 10-4 14-4 4-8 5-12 2-2-2-4-5-6-7-4-5-5-11-7-17l-10-49c-1-5-4-10-8-13-4-4-8-5-13-3-3 1-6 3-9 4-8 4-16 7-25 8-7 0-13-3-15-10-2-4-3-9-4-13 0-3 0-6-1-10-5 1-10 1-15 2-2 0-3 1-4 2-2 2-3 3-4 5-2 4-6 6-11 7-10 3-15 0-18-9-1-2-1-4-2-6-6 0-12 0-18-1-1 1-1 2-1 3-1 3-2 6-3 9-2 3-3 3-6 3-2-1-3-1-5-1-2-1-4-2-4-4-1-1-1-2-1-4 0-1-1-2-3-2-2 0-4 0-5-1-4 0-6 1-8 4-5 6-10 10-18 13-7 2-13 0-18-5-2-2-3-5-5-7 0-1-1-2-2-2-4-1-9-2-13-2-1 1-1 3-2 4-2 4-5 7-10 9-6 3-11 1-15-4-1-3-2-5-3-8 0-2-1-3-1-6-6 1-11 1-16 1-1 0-2 1-2 2-1 1-2 3-2 5 0 3 0 7 0 10-1 4-2 6-5 8-3 2-7 2-11 3-6 0-12 1-18 2-1-1-2-2-3-3-4-5-7-5-11-1-2 1-4 3-5 5-4 4-8 9-12 13-3 4-5 8-7 13 0 2-1 3-1 5-1 9-2 18-4 26-2 12-7 22-16 30-7 7-12 5-15-4-1-4-1-9-1-14-1-19 2-38 7-56 1-6 3-12 4-18 3-12 2-26 2-39 1-10 0-19 1-29 0-10 1-20 5-30 4-11 11-19 23-22 7-2 15-3 22-3 2 0 4-1 6-1 18-7 36-14 54-21 3-1 6-2 9-3 16-4 31-10 45-19 4-3 8-6 12-8 7-5 15-8 24-9 2-1 3-1 5-2h26c1 1 3 1 4 1 10 1 19 4 28 9 3 2 6 4 9 5 4 2 9 4 13 4 3 1 6 1 9 2 19 3 34 12 43 29 1 1 2 3 3 4l20 23c4 5 10 9 16 12 6 2 12 4 19 5 5 1 10 3 15 6l13 9c7 5 10 13 8 22 0 1 0 3 0 4z" />
<glyph glyph-name="snowmobile" horiz-adv-x="1000" unicode="&#xe81e;" d="M118 214c10 51 38 90 79 120 45 32 96 48 150 58 12 2 24 4 37 5 5 1 7 2 7 7 0 38 0 75 0 112 0 6-2 8-8 7-20 0-41 0-62 0-16 0-27 10-27 24 0 15 10 25 27 25 63 0 126 0 189 0 15 0 25-8 27-20 3-10-3-21-13-26-5-3-9-3-14-3-20 0-41 0-61 0-6 0-9-1-9-8 0-36 0-72 0-108 0-4 1-7 2-11 9-19 18-39 26-58 4-10 11-14 21-14 109 0 218 0 327 0 14 0 18 3 22 16 16 50 33 100 49 150 2 8 5 9 11 4 22-19 34-43 31-71-8-75-30-145-65-211-4-8-9-10-17-10-120 0-240 0-360 0-119 0-239 0-358 0-9 0-13 1-11 12z m358 186c5-13 11-24 15-35 3-7 7-9 14-9 65 0 131 0 196 0 33 0 67 0 101 0 4 0 8 0 9 6 15 45 30 91 45 137-14-4-22-10-32-23-17-22-34-45-50-68-5-7-10-8-17-8-90 0-179 0-269 0l-12 0z m429-206h-809c-19 0-33-15-33-33s14-33 33-33h809c18 0 33 15 33 33s-15 33-33 33z" />
<glyph glyph-name="space-shuttle" horiz-adv-x="1000" unicode="&#xe81f;" d="M829 787c27 1 53-3 79-8 11-1 16-6 18-17 25-158-15-291-147-388-134-98-276-184-417-272-10-6-17-6-25 3-29 29-58 57-87 85-8 8-10 14-3 24 91 144 178 291 280 428 75 100 179 143 302 145z m-195-214c0-48 38-86 86-86 48 1 86 39 86 87-1 47-40 87-87 86-47 0-85-39-85-87z m-212 13c-42-66-82-128-121-189-6-10-11-10-21-6-52 25-105 23-158 4-12-5-25-9-34 4-10 14-3 26 7 36 37 37 74 75 112 112 29 28 65 39 105 39 35-1 71 0 110 0z m310-380c0-14 0-28 0-42-1-42-13-78-43-108-35-34-70-69-104-105-12-11-25-18-40-9-14 10-8 24-3 36 19 53 20 105-5 157-4 9-3 14 6 20 59 37 117 75 175 113 12 8 14 3 14-8 0-18 0-36 0-54z m-502-71c-29-17-48-39-44-74 2-18 14-29 31-30 35-5 56 16 72 44 38-31 40-29 21-77-13-36-44-54-81-63-46-13-94-11-141-19-6-1-12-2-20-4 12 56 8 112 23 166 10 35 29 62 62 77 38 18 48 15 77-20z" />
<glyph glyph-name="star-shape" horiz-adv-x="1000" unicode="&#xe820;" d="M500 776c7-18 13-35 19-51 29-82 58-164 87-246 2-5 4-7 10-7 104 0 208 0 313 0h8c-2-2-3-3-5-4-69-57-138-113-207-170-4-3-6-3-11 0-69 51-138 101-207 152-6 4-9 4-14 0l-207-151c-4-4-7-4-11 0-69 56-138 112-207 168-1 1-3 3-6 5h9c104 0 208 0 312 0 6 0 9 1 11 7 34 97 69 193 103 290 1 2 2 4 3 7z m245-740c-1 3-3 4-5 6-78 60-157 120-235 180-4 3-6 3-10 0-78-60-156-120-234-179-3-3-5-5-6-9-8-24-15-48-22-72-4-13-8-25-12-37 4 0 5 2 7 3 89 68 178 136 267 204 4 3 6 3 10 0 66-50 132-101 198-151 25-19 49-38 75-58 0 3 0 4 0 4-11 36-22 72-33 109z m-240 349c-4 3-6 3-10 0-58-45-116-89-175-134l-35-116 210 160c4 3 6 3 10 0 66-50 132-101 198-151l12-9-36 116c-58 45-116 89-174 134z m-220-250l0 0c0 0 0 0 0 0z" />
<glyph glyph-name="swirl" horiz-adv-x="1000" unicode="&#xe821;" d="M938 136c-3-15-4-29-8-44-23-75-73-123-148-144-107-31-220 24-270 127-13 26-20 53-24 81-13 82-76 149-159 164-82 15-163-29-193-105-25-67-1-143 58-177 49-29 110-21 146 18 26 29 33 70 16 103-15 29-47 45-75 36-17-5-28-15-32-33-1-8 0-14 5-21 5-7 17-11 24 0 4 7 12 7 19 1 8-6 11-18 7-29-7-21-30-34-54-30-36 6-62 39-61 78 1 47 38 88 86 96 64 12 126-28 146-92 22-69-8-144-71-182-68-41-158-32-217 21-53 48-76 107-69 177 9 93 75 169 165 195 54 16 108 13 161-8 57-22 113-22 168 6 59 30 95 78 102 145 9 87-47 158-121 174-66 15-133-21-153-82-15-45 0-93 36-118 33-22 76-19 100 8 13 15 18 32 12 51-5 16-18 25-32 23-11-1-16-9-12-20 2-4 1-9-2-12-5-6-11-8-18-7-15 3-27 18-28 35-2 30 22 57 54 62 43 7 84-21 98-66 14-47-6-101-51-130-53-35-126-27-174 19-59 56-69 147-23 216 35 54 86 82 150 87 3 1 6 0 8 2h10c3-1 6-1 9-2 62-4 113-31 152-79 70-88 66-218-10-304-17-18-37-33-55-50-64-62-78-162-33-238 39-65 115-98 186-80 76 19 122 91 108 162-12 59-65 99-121 92-43-6-77-42-74-84 2-24 19-45 41-50 15-4 31 3 37 15 4 10 0 19-10 21-11 2-15 10-11 20 3 10 14 18 27 18 21 1 42-14 48-37 8-28 1-52-18-72-31-32-83-36-123-10-43 28-63 83-49 136 18 66 83 115 163 106 76-8 138-67 153-143 1-10 1-20 4-30l0-16z" />
<glyph glyph-name="tattoo-wing" horiz-adv-x="1000" unicode="&#xe822;" d="M500 161c0 11 0 21 0 32 0 4-2 4-5 5-50 19-97 44-140 77-45 34-83 74-107 126-20 42-27 86-22 133 0 1 1 2 1 5 4-12 8-22 13-31 13-30 32-56 53-80 50-57 111-97 179-128l29-13c3-2 6-1 6 3 0 7 0 13 0 19 0 4-2 4-5 5-47 21-90 48-130 80-46 37-85 79-110 133-20 40-29 82-27 127 1 28 6 56 15 84 3-10 5-20 8-29 11-40 30-77 53-112 49-72 114-128 188-173 28-18 58-34 88-48 4-2 5-4 4-8-12-32-21-65-26-99-5-37-6-74-2-111 4-39 13-77 28-114 1-4-1-6-4-8-36-31-74-61-112-91-12-10-25-20-38-31-3-3-5-2-5 2-3 16-6 32-9 48-1 3 1 5 3 7 23 24 46 48 70 73 5 5 5 5-2 8-63 32-119 72-167 124-40 43-70 92-83 150-3 14-5 28-6 43 61-104 155-165 262-208z m-166 627c6-16 12-31 19-45 21-45 49-85 82-122 44-48 97-87 156-115 17-8 35-16 53-22 18-6 33-17 48-29 29-22 55-48 73-80 5-7 8-15 9-23 1-4 1-8 1-12-1-4-3-5-7-2-9 8-19 15-32 16-5 1-9 0-13-3-29-24-45-54-47-92-2-38 26-128 22-132-28-25-57-49-86-74-4-4-6-3-7 2-11 25-18 51-22 77-4 24-4 49-4 73 1 56 13 109 31 162 4 10 4 11-5 18-17 15-36 27-54 40-39 29-77 59-111 94-35 36-66 75-87 122-18 39-26 80-23 122 0 8 2 15 3 23 0 0 1 1 1 2z" />
<glyph glyph-name="throne" horiz-adv-x="1000" unicode="&#xe823;" d="M706 61c0-45 0-89 1-133 0-12-3-16-15-16-18 1-36 1-54 0-14 0-18 4-18 17 1 67 0 134 1 201 0 16-2 21-20 21-68-1-137-1-206 0-12 0-16-3-16-16 1-69 0-137 1-206 0-14-4-17-17-17-19 1-39 1-58 1-9-1-12 2-12 11l0 270c0 25 18 42 43 43 18 0 36 0 54 0 10 0 14 2 14 13 0 42-1 84 0 126 1 15-8 13-17 14-11 0-15-3-14-15 0-26-1-52 0-78 0-10-2-14-13-14l-171 0c-21 0-36 14-36 33 0 18 15 32 36 32 34 1 67 1 101 0 13 0 18 3 17 17-1 14 0 28 0 43 0 54 32 89 86 90 68 1 136 1 204 0 54-1 85-34 87-87 0-16 1-32 0-48-1-12 4-15 15-15 37 1 74 0 110 1 17 0 29-7 35-23 8-20-6-42-27-42-63-1-126-1-189-1-9 0-10 5-10 12 0 26 0 52 1 78 0 13-4 17-16 17-12-1-18-2-18-16 1-41 1-82 1-123-1-10 2-15 14-14 20 1 39 0 59 0 31 0 47-16 47-47 0-43 0-86 0-129z m140 27c0-53 0-107 1-161 0-11-3-15-15-14-27 0-55 0-83 0-8 0-11 2-11 11 0 109 0 218-1 327 0 12 5 14 15 14 26-1 53-1 79 0 12 0 16-4 16-16-1-53-1-107-1-161z m-692 1c0 53 0 107 0 160-1 13 4 16 16 16 27-1 53-1 80 0 10 0 13-4 13-13-1-109-1-218 0-326 0-11-4-14-14-13-27 0-53 0-80-1-12 0-16 3-15 16 0 53 0 107 0 161z m263-75c0 29 0 58 0 87 0 9 3 11 12 11 47 0 95 0 142 0 9 0 11-3 11-12 0-58 0-117 0-175 0-9-3-12-12-12-47 0-94 0-142 0-9 0-11 4-11 12 0 30 0 59 0 89z m82 502c-42-1-75 32-76 74-1 41 34 76 75 76 42 0 76-34 76-75 0-41-33-75-75-75z m30 224l-33 48-34-48-66 19 32-91c33 26 68 26 68 26s34 1 67-26l33 91-67-19z" />
<glyph glyph-name="tree-alt" horiz-adv-x="1000" unicode="&#xe824;" d="M421-88c30 30 56 61 62 105 3 21 2 41 1 62 0 7-3 12-10 16-33 18-64 39-105 35 30 23 64 18 99 17-14 45-32 87-57 125-15 23-41 29-69 24-34-7-68-10-101 1-9 4-19 7-30 16 43-10 78 1 111 18 19 10 38 20 61 19 10 0 9 7 9 14 0 36 3 73 20 106 2 2 3 5 4 7 17 28 16 28-3 54-19 26-42 45-72 56 14 3 19 2 37-4 29-9 53-25 74-45 9-9 13-7 21 1 33 35 43 78 47 124 1 4 1 8 1 15 9-22 9-42 9-62 1-21-1-42-8-63-7-20-16-38-27-55-10-18-24-33-28-59 56 33 114 23 170 26 54 2 64 7 105 37-9-20-38-42-70-52-34-12-70-14-106-20-33-5-60-21-85-44-13-12-7-25 0-36 20-32 46-58 69-88 4-5 7-7 14-3 36 21 73 16 110 5 36-11 72-21 109-2-23-30-56-38-90-41-21-2-43-1-63-8-25-9-31-23-19-47 37-74 55-153 42-236-1-6-2-12-4-18h-228z m-106 679c-43-26-95-23-134 8 39 36 101 32 134-8z m309 139c0-39-24-74-56-83-6-2-13-5-17-1-5 4 0 10 1 15 6 33 20 62 49 81 6 4 12 7 18 9 3 0 5-8 5-21z m195-90c20-42-4-100-47-114-8-2-12-1-12 9 2 45 19 81 59 105z m-109-187c39 20 78 19 117 2 14-6 5-12 0-17-33-32-86-25-117 15z m101-183c-12-2-14 3-9 16 14 34 37 57 74 66 7 1 13 2 12-9-1-38-37-73-77-73z m-132 322c13-43-1-78-31-108-8-8-12-6-15 4-15 41 0 86 46 104z m-46-254c-30 17-42 44-41 78 0 8 3 9 10 6 31-15 48-49 31-84z m-361-68c-3-37-28-67-60-76-18-5-21-2-17 16 7 38 29 60 65 69 12 3 13-1 12-9z m540-114c-35 0-65 23-72 53-2 9-1 12 9 12 35-2 64-14 85-44 10-14 4-18-9-20-5 0-10 0-13-1z m-512 201c1-7 0-18-6-21-5-4-13 4-19 8-27 16-42 39-43 71 0 9 1 13 12 11 32-7 56-35 56-69z m0 147c-13 1-32 2-37 15-4 10 13 19 24 26 20 14 43 19 68 14 8-1 12-4 7-13-15-25-31-41-62-42z m-121-187c-35 2-62 25-67 58-2 9 0 11 9 11 33 0 57-16 72-45 11-22 9-24-14-24z m578 20c0-31-22-59-49-67-6-2-9-1-12 6-11 34 16 75 52 77 16 0 6-11 9-16z m-462-279c-23 0-26 5-16 27 13 27 34 39 62 36 9 0 11-2 9-12-7-31-27-50-55-51z m102 579c0-15-2-32-15-36-11-4-18 13-26 21-1 1-1 2-2 3-12 17-12 48-2 61 3 4 6 3 10 2 21-8 35-28 35-51z m137 98c-1-14-1-31-13-36-12-5-20 12-28 21-15 18-14 39-7 60 3 9 8 9 15 5 20-11 33-26 33-50z m-145-575c-16-1-30 5-42 17-7 8-19 20-14 28 6 9 22 12 34 11 18-2 32-11 40-27 12-22 8-29-18-29z m56 538c30-1 53-24 52-52 0-6 0-12-9-12-28 0-52 16-59 42-5 18-3 22 16 22z m-64-648c0 27 13 45 37 56 7 3 9 1 13-4 15-26 1-61-28-69-19-5-22-2-22 17z" />
<glyph glyph-name="triangle" horiz-adv-x="1000" unicode="&#xe825;" d="M757 574l179-180v360l-179-180z m154-211l-184 182-190-188 183-184 191 190z m-3 425h-814l407-406 407 406z m-844-34v-814l405 407-405 407z m278-594h322l-161 161-161-161z m594-213v382l-190-191 190-191z m-633 173l-214-208h371l208 208h-365z m217-206h381l-191 190-190-190z" />
<glyph glyph-name="unity-hand" horiz-adv-x="1000" unicode="&#xe826;" d="M191 667c-4 11 5 21 16 19 3 0 7-1 10-2 20-8 40-15 60-22 14-5 29-11 44-15 9-2 18-6 27-8 3-1 7-1 10 1 3 1 4 4 1 6-5 6-12 11-19 15-5 3-9 6-13 9-15 9-31 17-47 26l-21 11-8 5-13 7c-8 4-8 14-4 20 5 7 10 8 18 7 7-2 13-6 20-10 15-7 30-15 44-23 13-7 26-13 39-20 10-5 19-9 30-12 2 0 4-1 5 1 1 2 0 4-1 5-6 6-11 12-16 17-4 3-7 6-11 9-8 7-15 15-24 21-3 3-6 6-9 9-7 6-15 12-21 19-6 6-7 14-4 20 3 5 10 7 15 5 4-1 7-3 10-6 7-5 14-11 21-16 9-6 17-12 25-19 11-8 22-16 32-26 7-7 15-13 24-19 11-7 23-10 36-14 10-2 20-6 30-10 10-4 18-9 27-14 9-5 16-12 24-19 8-7 16-15 19-27 1-5 1-9 0-14-2-9-5-16-10-23-8-9-9-20-12-31-2-8-2-16-3-24-2-13-8-23-17-31-9-9-19-15-29-22-5-3-10-6-15-9-7-4-15-5-23-5-11-1-21-3-32-8-7-3-13-8-19-12-6-5-13-8-20-9-9-1-17-6-24-11-5-4-10-7-15-10-6-2-13 3-14 10-1 10 4 18 10 25 6 9 15 13 24 16 5 1 9 4 12 7 9 7 18 14 27 20 2 1 5 2 8 3 10 5 8 11 4 19-2 3-5 5-9 7-8 3-16 8-24 13-10 7-21 11-33 11-9 1-18 3-27 4-13 2-26 1-40 2-13 1-27 2-41 4-12 1-24 2-36 4-9 1-15 6-14 16 1 7 8 14 17 13 13 0 27 0 43-1 21 0 46-2 70-2 7-1 14 1 19 5 6 3 6 9 1 14-2 2-5 3-8 5-11 4-22 9-34 13-17 5-32 13-48 18-8 3-16 7-24 10-7 3-15 5-22 9-5 2-10 4-14 8-2 1-4 3-4 6z m251-469c-2 5-6 10-9 15-6 7-11 15-12 24-1 7-4 14-9 20-4 6-9 12-12 20-5 10-6 20-7 31-1 8-2 16-6 23-2 5-6 10-9 15-6 10-13 21-22 30-8 9-18 15-30 16-10 1-19 2-28 4-10 2-20 4-28 11-6 5-13 8-20 10-10 2-19 0-27-5-8-5-15-10-20-18-5-7-11-13-16-20-4-9-10-17-13-26-4-11-9-22-12-33-2-8-3-17-7-24-7-13-16-25-26-36-15-16-27-34-40-50-1-2-2-4-3-5-7-7-12-15-18-22-2-3-3-6-5-10-1-4 1-10 4-13 6-4 15-4 20 1 5 5 10 10 15 15 6 9 13 16 20 24 8 10 18 20 26 30 5 5 10 9 15 14 1 1 3 3 5 1s1-3 1-5c-2-10-6-19-10-28-8-13-14-27-22-41-8-14-15-29-23-44-3-6-8-13-9-20-2-8-1-13 6-17 7-5 18-4 21 5 1 3 2 5 4 7 3 6 7 11 9 16 6 12 13 23 19 35 5 12 13 23 20 34 2 4 4 7 6 10 4 7 8 13 14 18 3 2 5 1 7-2 1-2 1-6 0-8-2-10-5-20-8-30-7-21-14-43-23-64-3-8-5-17-9-26-2-6-5-13-7-20-2-12 3-18 16-19 4 0 7 1 10 4 3 4 5 9 7 13 6 15 12 29 17 44 7 17 14 34 20 51 3 11 8 21 12 31 2 4 3 8 6 12 5 5 11 5 15-2 4-5 5-11 5-18-1-25-3-49-3-71-1-16-1-29-1-42-1-1 0-3 0-5 2-8 8-12 16-13 7 0 12 7 13 13 2 13 3 25 4 38 2 13 3 26 4 40 1 13 0 27 2 40 1 9 4 17 4 26 0 13 4 25 11 35 6 8 10 16 14 25 1 3 4 6 7 7 7 4 13 7 18-3 1-3 2-6 3-9 6-8 12-17 19-25 4-3 6-8 8-13 3-9 7-18 15-25 8-5 16-10 26-9 6 0 12 7 10 13z m364-159c-5 3-10 6-15 8-7 3-14 6-22 9-8 3-16 7-24 10-16 5-31 13-47 18-11 3-21 8-32 12-4 2-8 3-11 6-5 5-5 10 1 14 5 4 12 6 19 5 24-1 49-2 74-2 12-1 25-1 38-2 4 0 8 1 12 4 8 5 10 20-1 24-3 2-7 2-10 3-11 1-21 2-32 3-14 1-27 3-40 4-14 1-28 0-41 2-9 1-17 3-26 4-12 0-23 3-33 10-9 5-18 11-28 15-4 2-7 6-9 11-2 6-1 10 5 13 3 1 6 2 9 4 9 6 18 12 26 20 4 3 8 5 12 7 10 3 19 7 25 15 6 8 10 15 10 25 0 9-8 13-16 10-5-3-9-6-14-9-7-5-14-10-24-11-7-1-13-4-19-8-5-5-11-9-18-13-10-5-22-7-33-7-8-1-16-2-23-6-6-2-10-6-15-9-11-7-21-14-30-22-9-8-14-18-16-30-1-8-2-16-3-25-3-11-4-22-12-31-5-7-9-15-10-23-1-5-1-9 0-14 3-12 11-20 19-27 8-7 15-14 24-19 9-4 17-10 26-13 11-4 21-9 32-11 12-3 24-7 35-14 9-6 17-12 25-19 10-10 21-18 32-27 8-6 17-13 26-20 10-6 18-15 29-20 5-2 12 1 15 6 3 6 2 14-3 19-6 6-11 11-17 16-5 3-8 8-13 11-9 6-16 14-24 21-8 7-17 15-24 23-2 2-4 4-5 6-1 3-1 4 2 4 1 0 3 0 4 0 10-2 19-6 28-11 13-7 27-14 40-21 14-8 29-15 44-23 7-3 13-8 21-10 8-1 12 0 17 7 5 7 4 17-6 21-2 0-3 1-4 2-11 8-24 13-35 20-18 10-35 19-52 29-3 2-6 4-9 6-7 4-13 9-19 15-3 3-2 5 1 7 3 1 6 1 9 0 10-2 20-5 30-8 21-7 43-15 64-23 9-3 17-5 26-9 7-3 14-6 21-7 5-1 10-1 13 4 4 4 6 10 4 16 0 2-2 4-3 5z m127 506c-7 4-16 4-21-2-6-6-11-11-16-17-3-5-8-8-11-13-6-9-14-16-21-24-7-8-15-17-23-24-2-2-4-4-6-5-3-1-4 0-4 3 0 1 0 2 0 3 2 10 6 20 11 29 7 13 14 26 21 39 8 14 15 30 23 45 3 6 8 12 9 20 2 8 1 13-6 17-7 5-18 4-21-6-1-2-2-4-3-6-3-5-7-11-10-17-6-12-13-24-19-36-6-11-13-21-19-32-2-3-4-5-6-9-4-7-9-13-15-19-2-2-5-2-6 1-2 3-2 6-1 10 2 9 5 19 8 28 8 24 17 47 25 71l9 26c2 5 4 10 5 16 2 11-8 20-20 17-2-1-4-2-5-4-3-4-6-8-8-13-6-14-12-29-17-44-6-17-14-33-20-51-4-12-9-23-14-35-1-3-2-6-5-8-4-5-10-4-14 1-4 6-5 12-5 19 1 24 3 49 3 75 0 11 1 24 1 36 0 2 0 4 0 7-2 8-8 12-15 13-8 0-13-7-14-13-1-7-2-14-3-22-2-18-4-37-5-56-1-13 0-26-2-39-1-9-3-17-4-26 0-15-5-28-13-40-5-6-8-12-11-19-1-4-4-7-7-9-7-4-14-7-19 4-1 2-2 5-3 8-6 9-13 17-20 26-3 3-5 7-7 12-3 9-7 18-15 25-8 5-15 10-25 9-8 0-13-8-11-14 3-5 6-10 10-15 5-7 10-15 11-24 1-7 4-13 9-19 5-8 11-15 14-23 3-10 5-19 5-29 1-8 2-16 6-23 3-5 6-9 9-14 7-11 13-21 22-30 8-9 18-15 31-16 8-1 16-2 24-4 12-2 23-5 33-12 5-5 11-7 18-9 10-3 19-1 27 4 12 7 21 18 29 29s15 22 20 35c4 11 9 22 11 34 3 12 7 23 14 34 5 9 11 17 18 24 10 10 19 21 27 32 6 8 13 16 19 25 5 7 11 15 17 22 2 3 3 6 4 9 2 4 1 11-3 13z" />
<glyph glyph-name="weed" horiz-adv-x="1000" unicode="&#xe827;" d="M902 254c12 9 24 18 36 26l-32-2 2 7-15-12 0 9-19-9-3 7c0-1 0-1 0-1l-1 3-14-14-1 10 0 0-1 5-16-19-2 16-19-18-1 10-15-21-5 11-12-16-3 10-16-17c-1 4-2 6-3 7-5-4-10-8-15-13l-4 7-15-17-1 9c-5-6-10-11-15-16l-3 6-17-21c-1 4-2 6-3 10-6-8-11-14-17-21l-4 5c-6-7-11-13-17-20-1 3-2 4-3 8-6-7-11-13-15-19l-3 8-10-14-9-11-3 4c-25-32-54-61-89-83-1 1-1 2-1 3 11 22 73 86 117 119-1 2-3 3-5 4 6 4 11 8 17 11l19 12-14 1 33 18-4 2c0 0 0 0 0 0l-10 4 26 20-8 4c10 8 20 14 31 22-5 2-8 4-11 5 9 7 18 13 28 20l-9 5 21 15-7 6c7 6 13 11 20 17-4 2-7 3-10 4 8 7 15 13 23 19v0l2 1-14 3c8 7 15 13 23 20l-10 4c6 5 12 10 19 17l-11 4c2 2 5 4 7 6l17 15-3 0-11 2 23 22-16 1c5 5 9 8 13 12l13 12h-19l17 22-11 3 4 5 18 21-12 1 26 60-43-32c-1-1-1-1-2-2l-4-3c-3 3-6 9-6 9l-14-29c-1-2-2-4-3-6l-8 9c-4-8-7-16-10-25l-11 14c-3-10-5-18-8-28l-10 10c-3-10-6-19-9-29-2 3-5 6-8 11-3-11-6-20-9-30l-8 8c-2-9-4-17-7-26l-4 9-4-1-6-28-2-3-4 10-4 0-7-27-8 7c-2-9-4-17-6-26l-7 4c-1-5-3-9-4-14 0-4 0-10-7-8-1 0-4-4-4-7-2-8-3-16-4-25-4 2-5 4-10 7-2-12-3-24-5-36l-8 3c-2-10-4-19-7-30l-7 5c-2-11-5-21-7-30l-9 6-2-38h-7c-6-55-22-108-49-158-1 1-2 1-3 1 5 56 18 109 38 161l14 24h-12l24 40-15-5 12 34h-11c4 11 9 22 13 33l-11 1c4 13 8 22 14 37-3 0-5 0-10 0 5 11 9 22 14 33l-9 2c2 9 5 18 8 27l-8 0c3 10 5 18 8 28-5-1-8-1-12-2 4 11 7 21 11 32l-15-3 12 32c-6-2-10-3-14-4l10 28c-6-1-9-1-13-2l10 33-14-4 8 33c-5-2-10-4-16-7 4 12 7 21 10 31l1 4-20-8c2 10 4 19 6 29l-16-4c2 11 4 17 7 31l-13-3v21l-7-10-9 51-8-51-8 10v-21l-13 3c4-14 5-20 8-31l-16 4c2-10 3-19 5-29l-20 8 2-4c3-10 6-19 10-31-7 3-11 5-17 7l8-33-14 4 11-33c-5 1-8 1-14 2l11-28c-5 2-8 2-14 4l11-32-15 3c4-11 8-21 11-32-4 1-7 1-12 2 3-10 6-18 9-28l-8 0c2-9 5-18 8-27l-9-2c4-11 9-22 13-33-4 0-7 0-10 0 6-15 10-24 14-37l-11-1c5-11 9-22 14-33h-12l13-34-16 5 24-40h-12l14-24c20-52 33-105 38-161-1 0-2-1-2-1-27 49-43 102-50 158h-7l-1 38-10-7c-2 10-4 20-7 31l-7-5c-2 10-4 20-7 30l-7-3c-2 12-4 23-6 36-4-3-6-5-9-7-2 9-3 17-4 25-1 2-3 7-4 6-8-1-7 4-8 9-1 4-2 9-4 13l-6-3c-2 8-4 17-7 25l-8-6-7 27-3 0-5-10-2 2-6 28-3 2-5-9c-2 9-4 17-7 25l-7-8c-3 11-6 20-9 31-4-5-6-8-9-11-3 10-5 19-8 29l-10-10c-3 10-6 18-8 28l-11-14c-4 9-7 16-10 25l-9-10c-1 3-2 5-3 7l-13 29s-3-6-6-9l-5 3c0 1-1 1-2 2l-42 32 25-60-11-1 18-21 4-6c-5-1-8-1-11-2l17-22h-20l13-12c4-4 8-8 13-12l-16-2 23-21-10-2-4-1 17-14c3-2 5-5 8-7l-12-4c7-6 13-11 20-16l-10-4c8-7 14-13 22-20l-13-3 2-2v0c7-6 14-11 22-18-3-1-6-3-9-4 6-6 13-12 20-18l-7-5 20-15-8-5c10-7 18-13 28-20-4-2-6-3-11-5 11-8 20-15 31-22l-8-4 26-20-11-4c0 0 0 0 1 0l-4-2 33-18-15-2 20-11c5-4 11-7 17-11-2-2-4-3-6-4 45-34 107-97 118-119-1-1-1-2-1-3-35 22-64 50-90 83l-3-5-9 12-9 13-3-7c-5 5-9 12-15 19-2-4-2-6-3-8-6 7-12 13-17 20l-4-5c-6 6-12 13-18 20-1-4-1-6-2-9l-18 21-3-6c-5 5-10 10-15 15l-1-8-14 16-5-6c-5 4-10 9-15 13-1-2-1-4-3-7l-16 16-3-9-12 16-4-11-16 21-1-11-19 19-2-17-16 20 0-5-1 0 0-11-15 15-1-3c0 0 0 0 0 0l-3-6-19 8 1-8-16 11 2-7-31 3c11-9 23-18 35-27l-4-5c6-3 11-5 17-8l-5-6 17-7c-2-4-4-6-6-9 0 0 18-6 18-6l-8-6 24-6c-1-3-3-4-5-7l22-5-5-6 18-4-3-7 17-4-4-9 21-1 4 0-5-8 17-4-11-8 25 2-7-8c1 0 23-2 23-2l13-1-8-10 28 1-8-8c1 0 24-1 24-1l9-1-3-6c9-1 17-2 22-3l-4-4 9-1c1 0 1 0 1 0 2-1 4-1 6-1l-1-4 14 3-4-4 18 0c31-5 61-15 90-27-2-2-4-3-6-3-13 1-26 3-39 4-6 1-13 1-20 1l-15 1-12 3-5-4-11 4-6-6-9 4-4-7-9 6-2-6-8 4-3-8-12 3 2-9-15 7 3-10-12 5v-9l-10 6-4-8s-9 1-11 2l0-7-12 0 5-8-13 1 4-8-16-1 5-6-9 0-30-25 20 3 4-5 9 4 3-8 6 5 6-8 7 8 0-9 13 4-1-7 12 6-2-9 16 9 2-5 10 7 4-7 17 9 4-8 9 10 6-7 6 11 7-6 7 10 2-6 12 10 0-6 10 11 3-6 5 8 4-3 6 10c0 0 1 0 1 0 8 4 17 7 25 12 19 10 37 20 57 30 0 0 1 0 1 0 1-2 2-5 4-7-39-17-72-39-96-72-10-14-17-31-20-41-1-4-2-7-4-10 12 4 25 7 36 13 10 5 19 13 28 21 9 9 19 18 26 28 9 12 16 26 24 39 3 5 7 11 11 17 1-1 2-2 4-2-6-38-9-75 6-112 15 37 12 74 7 112 1 0 2 1 3 2 4-6 8-12 11-17 8-13 15-27 24-39 7-10 17-19 26-28 9-8 18-16 28-21 11-6 24-9 36-13-1 3-2 6-4 10-3 10-10 27-19 41-25 33-58 55-97 72 2 2 3 5 4 7 0 0 1 0 2 0 19-10 37-20 56-30 8-5 17-8 25-12 0 0 1 0 1 0l6-10 4 3 5-8 3 6 10-11 1 6 11-10 2 6 7-10 7 6 6-11 6 7 9-10 4 8 17-9 4 7 10-7 2 5 16-9-2 9 12-6-1 7 13-4 0 9 7-8 6 8 7-5 2 8 9-4 4 5 20-3-30 25-8 0 4 6-16 1 4 8-13-1 5 8-12 0 0 7c-2-1-11-2-11-2l-4 8-9-6v9l-13-5 3 10-15-7 2 9-12-3-3 8-8-4-2 6-9-6-4 7-8-4-7 6-10-4-6 4-12-3c-5 0-10-1-15-1-7 0-14 0-20-1l-39-4c-2 0-4 1-6 3 29 12 59 22 90 27l18 0-3 4 13-3-1 4c2 0 4 1 6 1 0 0 0 0 1 0l9 1-4 4c6 1 14 2 22 3l-3 6c3 0 6 1 9 1l24 1c0 0-8 8-8 8l29-1-10 10 13 1 23 2c1 0-7 8-7 8l26-2-11 8 17 4-5 8 4 0 21 1-4 9 16 4-3 7 19 4-6 6 23 5c-3 3-4 4-6 7 8 2 15 4 24 6l-8 6s18 6 19 6c-2 3-4 5-7 9l17 7-4 6c6 3 11 5 16 8l-3 6z" />
<glyph glyph-name="woman-bird" horiz-adv-x="1000" unicode="&#xe828;" d="M937 551c-3-40-8-80-23-119-8-24-16-48-28-71-23-41-53-77-91-105-37-26-77-45-121-55 2 17 2 34 1 50 34 9 65 26 93 48 29 23 53 52 72 85 19 33 32 68 41 105 6 27 7 55 7 82l0 24c-2-4-11-13-13-15-24-22-52-37-82-49-28-11-57-18-86-26-36-10-74-18-108-35-4-2-8-4-11-5-12 14-26 26-40 37l0 0c33 16 68 27 103 39 48 16 96 30 142 52 42 20 79 44 112 76 5 5 12 11 17 19 6-16 9-33 11-48 5-30 5-59 4-89z m-312-285c-2 24-7 47-16 70-9 24-23 46-37 67 0 1-1 3-2 4-16 22-35 41-56 58-28 22-60 38-93 51-13 5-25 10-38 14l-97 32c-27 9-53 19-79 31-41 20-79 44-112 76-5 5-11 12-17 20-6-17-8-34-11-49-4-30-5-59-4-89 3-40 9-80 23-119 9-24 16-48 28-71 23-41 53-77 92-105 36-26 76-45 120-55-3 17-3 34-2 51-34 8-64 25-91 47-30 23-54 52-73 85-19 32-32 68-40 105-7 28-8 56-8 84v20l12-12c8-8 17-15 26-21 2-1 45-28 94-42 12-3 28-7 49-13 5-2 11-3 16-5 18-5 37-10 55-16 7-2 13-5 20-7l0 0c3-1 6-2 9-3l5-3 16-6 0 0 1-1h0c37-16 70-38 95-70 7-8 14-17 19-26 22-35 35-73 39-114s-2-82-18-121c-10-25-24-47-41-67-7-8-10-8-18 0-1 1-3 3-4 5-19 22-33 50-33 50-14 28-24 58-27 90-6 58 7 112 44 158-12 15-27 27-42 38-19-26-33-54-43-85-2-5-3-11-5-17-9-36-11-73-5-110 1-8 3-16 4-24 16-70 49-129 103-178 13-12 19-13 28-6 15 13 28 27 41 42 21 24 36 52 49 81 1 4 2 7 4 11 17 45 26 92 21 140 0 2 0 4-1 5z m-206 368c0 46 38 83 83 83s84-37 84-83-38-83-84-83-83 37-83 83z m44 0c0-22 18-40 39-40 22 0 40 18 40 40s-18 40-40 40-39-18-39-40z" />
<glyph glyph-name="bat" horiz-adv-x="1000" unicode="&#xe829;" d="M936 323c-1 13-4 26-8 39-9 29-23 56-39 81-13 19-27 36-42 53-17 19-36 36-56 52-3 2-6 4-9 7-2-3-3-6-5-9-10-19-23-38-38-54-17-18-37-33-62-41-15-5-31-7-48-5-23 2-44 9-63 20-2 1-3 2-4 5 0 8-2 16-4 24-1 1-1 2 0 3 11 15 15 32 14 50-1 5-2 11-3 16 0 1-1 1-2 1-2 1-4 1-7 1h-2c-5 0-11-1-16-3-8-4-15-9-22-16-1-1-3-3-5-4-1 0-3 1-6 1-8 1-17 1-26-1-2-1-3 0-4 1-6 6-13 12-21 17-5 2-11 4-17 5 0 0-1 0-1 0h-7c-2 0-3 0-4 0-1 0-2-1-2-2-3-9-4-17-4-26 1-15 5-29 15-40 2-3 3-6 2-10-2-6-3-13-4-19 0-1 0-2-1-2-14-11-29-18-47-22-11-3-23-4-35-2-18 1-35 7-50 16-15 8-28 19-40 31-20 18-36 40-51 63-2 2-2 2-3 0-21-18-39-39-56-60-19-24-36-50-50-77-16-30-28-61-36-94-2-7-3-15-4-23 0 0 0 0 0-1v-1c26 12 54 20 82 25 20 4 40 6 61 5 23-1 46-5 67-16 21-11 38-26 50-47 3-5 6-11 8-17 1-1 1-1 3 0 12 12 26 20 43 24 19 4 36 0 51-11 13-9 23-21 31-35 11-17 19-36 26-56 4-11 7-22 10-34 0 0 0 0 1-1 1 4 2 7 3 10 6 23 13 44 23 65 7 15 15 28 25 40 10 11 21 20 36 25 14 4 28 3 42-2 14-4 26-12 37-22 1-1 1-1 1 1 7 12 15 24 25 35 10 10 23 19 36 25 15 7 30 11 46 13 15 2 30 2 45 1 29-2 57-8 85-17 12-4 25-8 36-13 1-1 1-1 2-1v15c-1 5-1 10-2 14z" />
<glyph glyph-name="bear-face" horiz-adv-x="1000" unicode="&#xe82a;" d="M795 732c-67 0-122-45-136-106h-322c-15 61-71 106-135 106-77 0-140-62-140-139 0-53 31-101 77-124v-150c0-195 167-351 362-351s362 156 362 351v150c44 23 74 71 74 124-1 77-64 139-142 139z m-479-287c0 21 17 40 40 40s40-18 40-40c0-23-17-40-40-40s-40 17-40 40z m181-408c-72 0-133 78-133 173s59 174 133 174c75 0 134-79 134-174s-59-173-134-173z m143 368c-23 0-40 17-40 40 0 21 17 40 40 40 21 0 40-18 40-40 0-23-17-40-40-40z m-211-122c-12 0-23-6-27-16-4-11-2-23 6-30l68-69c12-11 31-11 42 0l69 69c7 7 11 19 6 30-4 12-16 16-27 16h-137z" />
<glyph glyph-name="bear-tracks" horiz-adv-x="1000" unicode="&#xe82b;" d="M895 428c-67 56-144 87-232 85-79-3-134-76-114-150 9-30 13-59 19-89 7-40 14-80 29-119 13-35 38-57 75-67 25-7 49-10 75-9 5 0 11 0 16 0 57 1 94 27 112 81 5 14 10 28 14 42 15 52 29 104 29 159 0 25-2 50-23 67z m-568-2c-79 0-149-29-212-75-20-15-30-35-32-58-1-18-1-36 1-54 8-62 26-121 46-179 5-14 13-26 24-36 28-26 61-35 101-32 5 0 12 0 20 1 100 7 121 41 140 111 16 59 22 120 37 179 6 21 3 44-5 65-21 55-65 78-120 78z m101 1c24 20 29 70 10 95-15 19-35 18-48-2-10-14-14-30-14-46 0-16 4-31 15-43 12-12 25-14 37-4z m160 81c13 0 22 8 28 20 14 24 9 63-9 84-11 12-27 13-39 2-13-12-17-27-17-44 0-15 3-30 11-43 6-10 13-20 26-19z m-272-65c17 0 31 19 34 41 0 2 0 3 0 5 0 14-7 34-16 44-12 12-26 13-37 0-13-15-19-33-14-53 5-23 18-38 33-37z m395 105c12 22 11 45-3 66-14 21-32 20-46 0-8-12-12-24-11-40-1-8 2-18 7-27 15-23 39-23 53 1z m-559-128c15-12 32-8 40 10 5 12 6 24 6 36-1 9-2 17-3 26 0 3-1 7-2 11-5 13-14 17-27 12-19-9-29-27-31-47-3-18 2-35 17-48z m757 129c-14 8-26 3-30-13-3-11-4-22-5-33 0-11 1-22 4-32s8-19 19-21c11-3 20 2 28 10 22 24 14 73-16 89z m-153-26c15-2 25 7 31 20 12 23 9 46-2 68-10 17-27 18-39 3-11-13-15-29-16-48 1-4 2-10 3-16 3-14 7-26 23-27z m-636-143c5 11 5 23 5 36-1 12 0 24-4 36-5 13-15 17-27 12-18-8-27-24-30-42-4-20-1-39 16-52 15-13 33-8 40 10z m733 131c22 25 14 74-16 89-14 7-24 3-30-12-4-11-3-22-4-34 1-11 0-22 3-33 9-23 30-28 47-10z m-628-70c16-10 32-6 39 11 4 9 4 19 5 28 0 18-3 34-15 48-9 12-21 13-32 5-18-14-25-73 3-92z m685 130c7 1 8 6 6 12-4 17-13 31-25 47 2-19 4-35 5-50 1-9 8-9 14-9z m-820-86c7-1 14 0 15 9 1 14 2 29 4 47-13-15-21-28-25-43-2-6-2-12 6-13z m320 63c8 1 8 7 6 14-4 14-12 27-25 43 2-19 4-33 5-47 0-10 7-11 14-10z m358 94c9 1 8 9 6 15-5 14-13 27-25 42 2-18 3-32 4-46 1-10 8-12 15-11z m-178-7c8-2 13 1 14 10 2 15 4 29 6 48-13-16-21-28-26-43-1-6-3-13 6-15z m-357-80c8-1 13 3 13 12 1 14 3 28 5 42-11-11-20-23-24-38-2-6-4-15 6-16z m-69-23c7-1 13 0 14 10 1 14 3 28 4 42-12-11-20-23-24-37-2-7-4-13 6-15z m672 86c10 2 8 9 6 15-4 15-13 28-25 43 2-18 5-32 6-47 0-9 5-12 13-11z m-526-55c5 0 12-1 12 7 0 16-3 33-7 49-6-15-11-30-13-46-1-6 1-11 8-10z m380 87c7 0 10 4 9 10-4 15-7 31-14 48-5-18-6-34-6-49-1-9 5-9 11-9z" />
<glyph glyph-name="bear" horiz-adv-x="1000" unicode="&#xe82c;" d="M888 383c8-17 10-33-8-46-22-17-37-7-52 10 4-23-8-25-25-17-17 7-28 39-19 56 7 12 19 20 33 19 18-2 8-17 9-27 1-3 1-6 1-9 2 17 12 30 30 34 15 3 25-8 31-20z m32 252c-5-9-8-19-11-28-7-18-18-29-40-25-15 3-32 4-49-7 6-2 10-2 14-3 12-3 33 0 33-14 0-17-20-21-35-23-73-8-102-66-134-118-15-23-4-48 12-69 15-21 35-38 54-55 27-24 42-55 44-92 1-36-13-52-49-59-36-6-70 9-73 40-4 43-31 62-62 83-54 35-72 90-74 160-26-54-19-105 21-146 24-24 18-38-6-50-37-17-51-40-45-83 6-40-11-80-37-112-20-25-12-33 13-42 15-4 28-13 38-25 12-14 9-25-10-27-38-3-76-3-114 5-30 6-48 61-28 84 24 29 45 59 58 94 21 58 3 118-51 160 82-136 5-221-88-305 20-10 42-13 58-28 8-7 16-15 14-26-4-12-17-10-26-10-26-1-52-2-77-1-63 3-99 47-85 108 9 39 8 73-20 105-11 13-18 30-23 46-8 26-15 48-48 54-20 3-23 29-3 40 32 16 44 43 55 74 8 23 24 40 45 52l63 39c52 32 97 68 118 129 28 81 86 129 173 142 22 3 43 12 65 17 21 5 40 6 33 39-5 25 21 29 41 30 22 0 43-7 39-33-4-25 8-30 26-34 16-4 32-9 48-13 20-5 31-16 36-37 8-31 34-38 60-17 7 5 13 11 22 5 9-6 9-14 5-24z m-232 43c-1 16-14 28-31 30-14 1-24-8-26-21-2-20 12-30 27-35 15-4 31 13 30 26z m103-36c-6 8-15 6-22 9-9 4-19 8-28-1-4-4-3-8 0-11 8-7 17-12 28-11 9 1 18 3 22 14z m83-324c-22 0-45 0-68 0 14-32 49-42 74-22 5 5 13 9 10 17-2 7-10 5-16 5z m-41 94c12 0 23 0 34 0 12 1 19 6 10 17-25 32-60 47-98 54-23 4-31-23-44-37-11-14-31-30-23-46 5-10 31-10 52-15 3-1 10 0 15 7 13 19 34 20 54 20z" />
<glyph glyph-name="bird-alt" horiz-adv-x="1000" unicode="&#xe82d;" d="M645 214c-82 111-191 179-327 204-26 5-53 6-79 8-8 1-11-2-10-10 2-44 6-87 19-129 60-191 187-312 381-362 29-7 58-11 86-12 29-2 29-2 27 31-6 99-38 190-97 270z m125 15c-2 72-36 127-93 169-50 37-107 53-168 56-6 0-10 0-10 8 4 90 30 172 98 235 14 13 31 21 49 29-34 33-73 54-118 60-97 11-170-31-227-105-43-56-64-121-70-191-1-5-2-10 7-10 117-7 222-45 316-114 99-73 170-168 211-285 1-3 1-8 6-11 0 54 1 107-1 159z m-291 472c0 15 13 28 28 28 15 0 28-13 27-27 0-15-12-27-27-27-15-1-27 12-28 26z m78-128c24 11 47 9 70 1 24-9 37-30 50-51 7 12 10 24 12 36 4 27 7 54-1 81-5 17-13 32-24 46-3 3-5 4-10 2-39-15-88-73-97-115z" />
<glyph glyph-name="bird-flying" horiz-adv-x="1000" unicode="&#xe82e;" d="M936-32c-10 33-17 59-33 90-15 29-27 59-45 86-14 21-24 44-35 66-7 12-12 24-26 29-12 5-25 9-37 13-6 3-12 5-18 7-5 2-9 3-14 5-24 9-48 20-69 35-14 9-27 20-40 30-6 5-8 9-5 17 2 5 1 11 2 17 0 6 1 13 2 19 1 3 4 6 7 7 6 3 13 5 19 9 11 5 16 4 25-4 2-1 5-3 7-3 7 3 8 10 8 16l0 1c0 4-1 7-3 10l-4 4c-2 2-5 3-7 3-2 1-4 1-6 2-1 0-3 0-4 0l-2 1c-1 0-3 0-4 0l-1 1c-1 0-2 0-3 1-4 2-8 5-11 11-2 3-5 7-9 8-18 8-37 8-54-2-9-6-16-13-24-20-15-13-30-15-43-6-11 9-22 17-31 27-14 16-28 33-38 52-18 30-33 62-49 93-2 4-4 8-7 10-16 10-31 21-47 29-23 12-48 21-71 34-25 14-53 21-80 30-17 6-35 8-52 15-22 8-43 19-65 29h-6c1-2 2-5 3-6 3-5 6-10 9-15 2-4 4-7 6-11 1-2 3-3 4-5 8-12 14-24 26-31 2-1 2-3 3-4 7-8 15-15 22-22 3-3 5-7 9-9 8-5 17-10 26-15 3-2 10-2 10-4 1-8 10-7 14-9 13-5 25-14 40-15 10-1 20-6 30-10 3-1 6-3 9-5 7-6 14-13 23-17 6-3 9-8 11-14l7-15c0-2 1-4 2-6 2-4 3-8 5-11 2-4 6-7 8-11 5-10 10-21 15-32l2-4c2-7 6-13 11-19l4-6c3-6 5-14 9-18 10-8 9-23 21-29 4-2 4-10 6-14 1-3 4-4 6-6 0-2 2-4 3-6 3-5 6-9 8-14l4-12c2-5 0-21-3-25-7-11-15-22-21-35-14-32-32-61-67-75-2-1-4-4-4-6 1-8 3-15 5-22-8-5-16-9-24-14 9-18 9-18 17-13 5-5 8-9 13-13 6 3 12 6 17 10l2 2c4 1 7 3 10 5 5 1 11 2 16 2 8 1 15 2 18 11 5 12 14 22 26 26 14 5 28 10 42 13 18 4 34 10 47 22 7 6 14 5 21 3 21-7 43-15 64-22 12-4 24-7 36-11 15-4 30-10 45-15 4-1 8-1 13-3 6-2 12-6 18-7 16-3 31-8 46-16 5-3 10-8 14-14 8-12 14-26 21-39 7-13 13-26 20-39 2-3 5-6 8-9 3-3 6-6 9-9 4-4 8-9 13-13 1-2 4-2 5-4 3-8 8-14 17-17 4-1 6-5 9-8 3-3 5-7 8-9 10-9 21-17 31-25 0-1 1 1 1 3 4-9 4 1 6 1 2-9 6-16 15-19 6-2 5 3 5 6-1 0-2 1-2 1z" />
<glyph glyph-name="bird" horiz-adv-x="1000" unicode="&#xe82f;" d="M938 611v-14c-4-11-5-23-9-34-16-41-44-72-79-97-44-32-93-53-146-69-4-1-9-3-16-5 17-1 31 0 44 3 49 7 92 27 132 55 17 12 33 25 50 37 2 2 6 4 9 2 2-2 1-5 0-8-3-12-7-25-11-37-8-31-25-57-52-76-43-28-89-34-138-29-12 1-24 3-38 5 3-2 4-3 5-3 32-14 65-19 99-15 17 2 34 5 52 8 7 1 10-2 6-8-11-16-23-31-39-39-35-20-72-20-107-1-10 5-18 12-27 18 9-20 24-34 43-43 9-5 20-9 29-13 2-1 4-1 5-4 0-2-2-3-4-4-8-4-15-9-23-12-19-6-37-5-54 7-10 7-14 18-20 28-3-3-1-6-1-9 1-8 5-16 9-24 12-21 9-26-13-32-18-5-33 2-40 19-1 2 0 4-3 4-2-8 3-15 6-22 2-6 0-9-5-11-4-2-7-2-11-3-7-1-14 0-21-4 4-6 9-10 14-14 15-12 30-25 45-37 5-4 5-6 1-10-9-8-19-12-31-13-12-1-25-2-35-11-6-6-14-8-22-8-13 0-24-6-37-7h-17c-8 2-17 6-25 7-13 0-25 4-35 13-4 3-8 4-13 4-18-2-33 5-46 16-3 4-3 5 1 8 10 8 20 16 30 24 10 9 21 17 30 29-8 1-15 1-21 2-15 3-17 7-12 21 2 6 4 11 1 19-9-29-34-32-53-23-9 5-11 10-7 20 3 7 7 14 10 21 3 6 6 14 3 23-3-6-6-10-8-14-10-18-25-26-45-26-16-1-29 6-42 14-3 1-6 2-6 6 0 3 4 3 7 4 15 6 31 12 44 23 11 9 21 19 27 33-2-1-2-1-2-1-1-1-3-2-4-3-20-16-42-26-67-28-42-4-72 15-97 47-2 3-8 8-5 12 3 4 9 2 14 1 31-6 63-11 95-6 18 3 36 8 54 17-3 0-5 0-6 0-21-5-43-7-64-7-39 1-76 10-108 33-14 10-28 21-35 37-12 23-20 49-26 75-1 3-2 5 0 7 3 2 6 0 8-1 7-5 14-10 20-15 46-35 95-65 153-77 19-3 41-5 52-3-3 1-6 2-9 3-62 18-122 44-172 87-25 22-46 48-57 80-5 11-6 23-10 34v14c2 1 4 2 5 3 4 7 11 6 17 3l5-2c25-12 45-30 65-47 62-54 129-95 210-112 16-4 22-15 19-32-2-13-5-27-9-40-7-27-12-54-4-81 10-36 36-56 70-69 0 4-2 6-3 9-21 38-33 79-26 123 3 20 9 37 23 52 4 3 6 3 9-1 6-9 15-15 25-18 9-2 16-7 22-14 7-9 11-18 16-29 3 6 5 10 7 15 7 14 17 25 33 29 10 2 18 8 24 16 3 5 5 4 9 0 16-21 23-45 25-71 1-24-5-46-13-68-5-14-12-28-20-43 50 21 73 72 64 123-3 23-12 44-16 67s2 31 25 36c28 6 55 15 81 27 44 20 83 49 120 80 21 17 40 35 65 47 11 5 20 8 28-3z m-488-171c5 0 7-6 12-7-1 8-2 14-6 20-3 5-2 9 1 13 13 18 32 21 53 19 15-2 28-9 35-24 2-4 2-7 0-10-4-6-6-13-7-21l11 8c1-9-5-21-11-24-3-2-6-2-9 0l-10 8c-12 8-26 8-38 0l0-1c-6-3-11-12-19-7-8 6-13 15-12 26z" />
<glyph glyph-name="birds" horiz-adv-x="1000" unicode="&#xe830;" d="M428 270c-3-1-6 1-7 4-38 107-154 165-262 130-39-12-71-34-95-62-2-2-2-5 0-7s3-3 6-2l2 1c125 40 259-27 302-151 1-3 4-4 8-3 125 36 257-34 297-159 0-1 0-2 1-3 0-2 3-4 5-4 3 0 5 2 5 4 9 37 9 76-4 114-34 108-149 169-258 138z m200 180c-3-1-6 1-7 4-34 94-136 145-231 114-34-10-62-30-84-55-1-1-1-4 0-6 1-1 3-2 6-1 0 0 1 0 2 0 110 35 228-24 266-132 1-3 4-4 6-4 111 32 227-29 262-139l1-3c1-2 3-3 5-3 2 0 4 1 4 3 8 32 7 67-3 100-31 96-132 149-227 122z m304 66c-21 65-90 102-156 83-2 0-4 1-4 3-23 64-93 99-158 78-23-7-42-21-57-38-1-1-1-2 0-4 0-1 2-1 3-1 1 0 1 1 2 1 75 24 156-17 182-91 0-2 2-3 4-2 76 22 155-20 179-96 0 0 1-1 1-1 0-2 2-3 3-3 2 0 3 1 3 3 5 22 5 45-2 68z" />
<glyph glyph-name="bone" horiz-adv-x="1000" unicode="&#xe831;" d="M502 278c80 0 160-8 237-32 12-4 21-8 29-19 30-43 88-52 130-22 42 30 53 88 22 131-8 10-8 17-1 28 32 44 21 102-22 131-43 30-100 20-131-24-5-7-10-12-18-14-40-14-82-22-124-28-74-9-149-10-223-3-50 5-100 14-148 30-8 3-14 7-19 14-31 45-90 56-133 24-45-34-51-94-14-138 5-6 4-9-1-14-3-3-7-6-9-10-27-43-15-100 27-128 41-28 98-20 127 21 8 12 18 17 31 22 78 24 159 31 240 31z" />
<glyph glyph-name="bull" horiz-adv-x="1000" unicode="&#xe832;" d="M913 637c-5 3-12 7-11 13 4 29-17 27-34 27-8 1-15 0-23 3-24 10-49 10-74 5-31-5-54-21-64-51-10-30 0-55 22-76 12-11 24-22 31-36 12-24 7-46-17-68-27-26-32-27-61-9-48 31-90 68-122 116-20 29-40 59-59 89-20 30-47 40-82 34-55-9-110-22-163-39-26-8-44-10-67 12-30 30-92 27-117 0 13 0 26 1 38 0 22-3 44-9 51-32 6-22 15-33 43-31-20-16-33-16-43 2-20 33-64 41-98 15 26-4 57 7 75-23-17-9-18-10-16-14 14-21 6-40-3-60-2-4-4-11-2-15 15-26 7-50-4-74-7-15 2-16 12-16 4 10 12 18 21 10 10-8 22-8 32-14 36-6 37-5 43 28 6-26 7-28 16-24 36 13 49 49 29 82-4 8-9 15-13 22 24-9 34-28 36-51 1-6-3-16 5-18 23-6 15-26 13-37-3-14-3-29-11-42-6-10-3-18 11-17-3-2-6-5-8-5-22 6-23-12-28-24-6-16 7-21 16-27 24-17 53-27 66-57 4-8 12-19 27-11 20 11 27 34 15 53-4 5-6 11-5 17 2 11-4 12-13 12-7 0-15 1-22 3-11 3-19 10-19 21 0 11 11 12 19 14 44 11 70 41 83 83 3 12 3 25 13 37 6-35-6-63-22-89-14-21-13-23 13-25 17-1 34 0 50-7 16-8 23-5 29 12 7 23 22 40 50 42-2-9-8-12-12-16-41-44-42-120-1-163 40-43 40-93-1-134-3-3-6-6-8-9-11-13-23-27-16-43 7-14 25-9 39-10 21-2 32 5 30 28-1 18 9 34 23 43 15 9 30 14 14 36-4 4-5 18 3 23 8 4 13-6 18-11 20-18 19-42 15-66-2-13-6-26-9-39-4-15 2-23 17-24 57-3 69-4 49 56-7 23-9 48 18 65 7 4 12 13 10 23-28-6-54 5-66 27-12 24 4 38 17 54 5 6 11 12 18 18 34 33 40 74 23 116-9 21-6 30 11 43 55 47 57 91 7 145-8 9-17 19-24 30-16 26-5 55 24 65 17 7 35 7 52 6 13 0 23-3 26-18 3-13 11-24 24-27 22-6 43-14 65-30-4 23-7 40-24 52z m-744-154c-10-2-11 8-10 13 0 8 4 18 13 20 9 1 10-9 12-16 0-11-5-16-15-17z m158-132c-2-9-12-3-19-3 25 13 6 37 17 58 6-20 5-38 2-55z m-41-74c-34 23-35 26-16 68-21-14-31-31-43-46-14-16-10-27 8-38 18-11 38-21 45-45 4-12 10-27 28-16 15 10 32 18 20 41-9 19-27 25-42 36z m-108 127h1c0 0-1 1-1 1h0c0 0 0-1 0-1z m-16 0c-8-3-14-10-12-19 1-9 8-13 16-12 9 0 15 6 16 15 1 6 0 11-4 16-5 0-11 1-16 0z m-37 4l0 1 0 0h0l0-1c0 0 0 0 0 0z m-9-12c4-6 12-10 20-7 6 2 7 9 6 15-2 13-11 3-17 4-3-5-16-3-9-12z" />
<glyph glyph-name="butterfly-alt" horiz-adv-x="1000" unicode="&#xe833;" d="M446 468c9 18 21 32 36 38-40 140-124 229-128 233-9 9-23 9-31 1s-9-23-1-31c1-1 91-97 124-241z m-76-229c13 0 26 4 37 10 1 40 5 105 18 161-40 118-152 202-284 202-43 0-78-35-78-78v-107c0-104 84-188 188-188h119v0z m-208 179c-7 21-6 39 3 51 13 19 44 26 67 26 39 0 71-37 71-81 0-60-11-81-40-81-27 0-77 11-101 85z m392 50c33 144 123 240 124 241 8 9 8 22-1 31-8 8-22 8-31-1-4-4-88-93-128-233 15-6 27-20 36-38z m-197-255h-113c-38 0-69-30-69-68 0-105 86-191 191-191 35 0 63 28 63 64v1c-16 58-21 131-22 174-13 13-30 20-50 20z m-1-145c0-15-12-27-27-27-44 0-80 36-80 81 0 15 13 29 29 29h48c8 0 15-4 21-9 0-18 2-49 9-74l0 0z m503 545c-132 0-244-85-284-203 13-56 17-121 18-160 11-7 24-11 37-11h119c104 0 189 84 189 188v107c0 43-36 79-79 79z m-21-195c-24-74-73-85-101-85-29 0-39 21-39 81 0 44 31 81 70 81 24 0 54-7 67-26 9-13 10-30 3-51z m-338 63c-35 0-64-116-64-259s29-260 64-260c36 0 64 116 64 260s-29 259-64 259z m256-268h-113c-19 0-37-7-50-20-1-43-6-116-22-174v-1c0-35 28-64 63-64 105 0 191 86 191 191 0 38-31 68-69 68z m-85-172c-15 0-27 12-27 27v0c7 25 9 56 9 74 6 5 13 9 21 9h48c16 0 29-13 29-29 0-45-36-81-80-81z" />
<glyph glyph-name="butterfly" horiz-adv-x="1000" unicode="&#xe834;" d="M937 623c-6 19-36 30-68 34-40 4-90-5-134-23-34-14-65-31-97-56-50-40-76-71-90-89-11-14-13-31-23-38 0 4 1 14-5 17-2 2-5 3-7 4 3 10 15 58 35 86 25 33 52 52 56 55 4 2 9 2 12 4 2 2 3 8 2 9-4 2-10-3-13-7-3-3-39-28-60-59-21-30-33-77-36-86-3 2-7 4-9 4-2 0-5-1-8-3-3 10-15 56-35 85-22 32-57 56-61 59-3 4-8 9-13 7-1-1 1-7 3-9 3-2 8-2 12-4 3-3 31-21 55-55 20-27 32-74 35-85-3-2-5-3-7-5-7-3-6-13-6-17-9 5-16 26-29 45-14 21-34 42-84 82-32 25-63 42-97 56-44 18-94 26-134 22-32-3-62-15-68-33-4-15 15-59 34-85 13-20 16-42 21-64 8-32 21-79 56-90 33-11 97 8 97 8s1-11-20-20c-22-9-35-23-47-47-12-22-21-51-21-64 0-20 5-27 4-37-1-11 3-23 11-31 9-10 6-18 10-29 3-10 17-18 17-18s-2-22 14-36c13-12 28-20 37-28 10-9 17-15 38-19 12-3 19-22 44-21 27 2 27 1 45 8 28 11 40 65 52 117 9 41 16 67 29 75-4-24 1-63 1-63s-3-21 0-24c-2-11 2-25 3-25 1-8 6-24 12-24s11 16 11 24c2 0 5 14 4 25 3 3-1 24-1 24s5 37 2 64c11-6 20-35 29-76 12-52 24-106 52-117 18-7 17 0 45-2 25-1 32 23 44 25 21 4 28 11 38 19 9 9 24 16 37 28 15 15 14 37 14 37s14 8 17 17c4 11 1 19 10 29 8 9 12 20 11 32-1 9 4 16 4 36 0 13-9 32-21 54-13 24-25 38-47 47-21 9-20 20-20 20s64-19 97-8c35 11 48 58 56 90 5 22 8 44 21 64 19 26 38 71 34 85z" />
<glyph glyph-name="camel-alt" horiz-adv-x="1000" unicode="&#xe835;" d="M62 460v6c17 16 38 24 60 29 38 9 66 30 89 59 18 23 30 50 50 73 4 4 5 10 7 15 6 18 6 37 8 56 2 17 5 35 16 49 6 8 14 11 23 14 25 7 40 3 57-1 22-6 36-17 37-37 0-7 0-13 0-19 2-17 11-25 30-26 17-1 28 7 36 19l21 40c10 18 27 29 49 33 25 4 32 4 51-8 28-7 40-28 38-54 0-9-6-17-4-25 7-46 20-90 47-129 5-8 10-16 20-22 0 7 0 13-2 19-6 22 0 41 14 59 29 36 69 56 116 64 35 6 48-15 37-39-3-5-1-7 5-9 11-3 23-7 34-12 12-6 24-13 31-24 8-14 7-27-3-36-11-10-28-12-42-4-6 4-8 1-10-3-5-10-4-20-5-31-2-30-5-59-4-89 1-47-8-91-34-132-20-30-45-53-84-60-30-5-58 3-71 31-1 1-2 2-4 2 0-16-10-27-24-35-26-14-37-34-35-61 0-11-3-20-12-28-11-10-15-23-16-37-1-28 1-57 5-85 3-25 16-44 41-56 9-4 17-12 24-19 7-7 8-13 0-20h-25c-12 5-24 1-37 3-28 3-35 9-29 31 1 5 0 6-6 6-9-1-19-4-28-1-9 2-13 6-10 14 2 7 4 14 5 21 2 28 4 57 18 83 11 21 13 43 6 66-4 13-10 25-9 38 1 13-5 21-16 27-16 9-25 22-29 38-5 16-7 32-6 48 0 6-1 9-8 10-41 6-81 16-117 38-7-32-20-61-29-92-7-25-12-51-7-77 8-46 23-89 56-126 15-16 35-28 54-40 7-5 16-11 13-21-4-10-15-10-25-10-17 0-34 1-51 2-10 1-13 7-11 15 4 14-1 26-9 38-21 30-34 63-48 96-9 21-13 43-26 62-12 18-13 35-4 54 7 15 9 31 9 48 0 21-3 42-5 63-2 10-1 20-5 30-4-2-4-4-5-6-10-29-21-57-28-86-6-25-17-49-16-75 1-18 0-36-5-54-3-10-2-21-2-31 1-22 3-43 4-64 0-2-1-5 2-7 16-6 17-20 19-32 2-11 7-20 18-26 5-3 10-6 14-11 8-10 5-18-9-21-13-4-27-2-40 1-13 3-18 8-18 20-1 10 1 20-3 29-6 18-7 36-4 54 4 24 5 48-5 71-11 28-11 58-9 87 2 22 1 43-2 64-4 35-10 70-9 105 1 18 3 36 3 54 1 10 1 21 1 32-18-13-35-23-57-22-5 1-10-3-14-7-6-5-11-10-17-16-4-5-9-9-15-11-4-2-9-2-9 3 1 9-6 13-11 18z" />
<glyph glyph-name="camel-head" horiz-adv-x="1000" unicode="&#xe836;" d="M783 721c5-3 12 1 17-4-6-1-11-1-18-3 12-4 23-6 35-12-11 0-20 0-30-3 6-3 11-7 17-10-1-1-1-1-1-1-15-2-15-2-14-16 0-5 0-11 0-17 3 2 3 6 7 9 1-19-1-37-13-52-4-5-3-7 2-10 55-38 100-86 137-141 1-1 2-3 2-4 0 0 0 0 0-1-9 7-17 15-28 22 7-14 14-25 19-39-6 5-10 9-17 10 13-18 23-37 30-57 15-46 11-93-1-138-5-21-12-41-21-60 0-2-1-4-4-6 0 36-3 70-10 105-4-3-5-7-6-10-18-38-37-75-64-108-43-52-98-84-164-101-6-2-13-3-20-4 65 31 118 75 151 141-12-13-24-26-38-38-13-13-28-23-43-33-15-10-31-19-49-25 43 37 81 78 95 136-11-17-21-33-37-45-5-3-9-7-16-9 4 5 6 8 8 11 24 34 42 70 49 111 7 42-2 80-26 117-18-33-38-62-69-82 13 21 25 43 32 68-44-70-106-117-187-141 7-3 13-3 23 0 9 2 17 5 24 9 28 16 54 33 84 45 26 9 53 14 81 16-33-11-65-25-95-43-29-19-56-40-79-66 30 17 59 34 94 39-24-14-45-32-63-55-12-14-22-29-30-45 8 6 16 13 28 17-24-35-40-71-35-113 4-41 26-75 51-106-37 21-64 52-87 90-3-16 3-29 7-44-18 18-30 37-40 58-10 21-17 44-22 67-4-4-5-9-6-14-2-4-2-9-3-15-12 33-13 88 22 147-18-5-36-4-55 0 14 7 28 13 36 27-31-19-65-29-101-25 24 12 52 20 66 46-23-16-49-20-78-18 8 5 15 9 20 14 6 7 12 13 13 22 2 9-3 16-12 17-16 2-31 5-46 11-21 8-41 4-61-5-15-7-30-15-43-24-14-8-28-11-42-13-22-3-43-4-65 1-27 5-36 22-24 47 3 7 7 13 11 20-7 2-13 3-17 10-3 6-1 13-1 20 4 27 15 50 35 68 2 2 3 5 4 7 17 51 56 75 107 82 26 4 53 2 79 8 22 5 43 13 63 25 12 6 22 18 33 27 23 19 48 33 79 31 11-1 19 2 28 8 19 12 41 17 64 18 34 2 67-4 98-15 5-2 9-2 12 2 23 21 49 38 81 41 1 1 1 1 1 1h36z m-379-327c0-4-1-6-1-8-4-20 4-32 23-38 2 0 5-1 8-1 33-5 63 3 91 22 2 1 4 3 8 3-5-9-12-16-21-24 31 12 49 34 68 56-4-17-13-32-22-48 45 14 73 46 100 81-16-38-42-68-73-94 14 6 27 14 39 23 37 28 65 98 33 151-9 15-17 29-27 42-15 19-31 37-48 55 21-7 40-16 59-25-19 22-43 36-69 51 20-3 37-9 54-14-18 16-39 27-61 38 18-1 35-7 54-13-9 8-17 12-24 17 4 0 8-1 13-3 13-4 25-11 37-17 3-1 6-5 8-2 2 3-2 6-4 8-6 6-14 10-23 14-15 7-32 11-49 12-29 3-57-1-81-17-12-8-12-8-4-19 0 0 0-1-1-1-47 23-88-4-108-30 18 11 34 22 53 25-1-3-4-3-6-5-16-11-31-24-40-42-2-4-1-6 4-6 7 0 14 1 21 4 11 4 22 3 34-1 11-3 22-10 32-16 9-5 19-8 32-6-12 5-23 9-32 17 8-1 16-4 23-5 3 0 7-2 9 2 1 3-3 5-5 7-12 10-26 17-41 21-8 1-15 2-24 3 13 5 24 6 36 3 16-3 30-12 43-20 13-8 24-17 38-22 4-1 3-3 3-6-4-18-12-32-24-46-21-23-49-29-78-31-22-1-43 5-64 9-34 6-67 12-102 11-1 0-2 0-1 1 23 9 55 13 78 10 21-2 41-5 61-8 15-1 31 1 45 8 11 6 21 18 22 27-41-40-77-32-96-6 12-8 23-13 35-14 13-1 24 2 35 12-4 0-5 0-6-1-29-4-53 2-67 29-2 3-5 4-8 5-20 4-40 1-60-3-20-3-40-7-63-5 17 3 31 5 44 8 15 3 29 7 41 14 2 1 5 3 4 6-1 2-4 2-6 1-6-1-12-3-17-4-27-7-52-16-80-18-18-1-35-1-52-5-41-11-74-30-80-77 0-4-3-5-6-6-15-11-28-24-35-42-4-9-5-18 1-28 3 13 5 24 13 33-1-8-1-15-1-23 0-16 5-21 21-22 24-1 48 3 72 10 22 6 43 16 60 33 8 7 8 12-1 19-4 2-8 4-14 7 14 2 26 2 37-5 7-5 14-11 21-18 12-13 22-28 38-37-5 0-10 1-15 2-14 5-26 3-37-8-9-9-21-14-33-18 11 8 22 16 28 28 4 6 10 12 6 18-5 6-14 4-21 2-12-3-23-9-33-16-18-11-37-18-58-22-20-4-42-6-52-30-3 8 1 14 3 21-12-6-13-17-18-27-1 8-1 16-3 23-5-3-7-7-9-12-7-19 10-38 32-37 22 1 42 9 61 18 7 3 13 6 20 9-10-12-22-20-35-28 4 0 7 0 10 1 19 3 35 12 49 24 22 16 45 22 72 20 20-1 41 1 60 11 5 3 11 6 17 10 0-7-6-11-7-17 14 0 25 5 37 12z m353 282c0-1 0-1 0-2-1-2-2-4-3-6-15-29-25-59-23-92 0-4 0-8 4-9 4-1 6 3 8 6 20 30 31 63 31 99-1 25-5 28-28 20-28-9-44-28-49-58 5 7 7 13 13 17-3-14-3-17 0-27 5 14 9 29 20 40-4-10-7-21-7-32 5 8 8 16 14 24 5 7 11 15 20 20z m-301-356h-12c-6 0-12 5-16 3-5-2-4-10-7-15-2-1-3-3-4-5-4-5-8-8-12-13 18 6 35 14 51 30z m233 350c-13-10-22-20-28-32-1-2-4-4 0-6 6-3 11-9 15-16 1 10 2 19 4 28 1 8 4 16 9 26z m-319-354c12 3 23 8 32 17-8 3-13 8-19 14-1-13-6-22-13-31z m65 243c-3 6-4 11-5 16-1 7-7 3-10 4-5 0-3-4-3-6 3-8 9-12 18-14z m-69-125c24-11 49-17 76-15-14 7-28 12-41 22 30-7 59-9 89 0-15 3-30 8-44 17 43-1 56 0 71 10-8 0-15-1-22 0-7 1-14 2-22 7 63 10 100 43 99 109 6-17 9-34 9-52-1-25-6-50-18-72-30-59-92-81-152-54-10 4-19 9-27 15-6 4-12 9-18 13z m-227 61c5 20 15 34 28 46 10 9 22 10 35 8 8-1 12-6 14-14 2-11-2-20-10-25-6-3-12-5-19-4-17 1-33 0-48-11z m38 21c9-1 16-1 23 2 3 1 8 2 7 6-2 5-7 3-10 2-7-1-13-5-20-10z m23 43c15-1 27-4 37-15 11-12 11-27 0-39-11-11-25-16-40-17-13-2-26-1-38-2-19-2-34-11-48-22 12 17 28 28 50 28 11 1 23 0 34 4 10 3 19 7 25 15 13 15 9 34-9 42-3 2-7 3-11 6z m168 1c12-16 25-27 41-37-24-1-32 6-41 37z m8-31c-21 0-17-4-23 13-3 6-4 12-5 18 8-11 17-22 28-31z" />
<glyph glyph-name="camel" horiz-adv-x="1000" unicode="&#xe837;" d="M920 252c-22 11-34 38-29 63 6 27 8 55 1 82-1 8-4 14-6 19-3-27-5-56-8-84-3-27 1-51 18-73 4-6 8-13 13-18 24-25 27-56 24-88-3-31-4-61-6-92 0-14 0-28 8-41 7-11 0-24-13-26-18-2-36-1-54 0-9 0-11 7-6 14 3 3 5 7 8 9 21 10 26 29 27 49 2 34 1 68 1 102 0 15-8 28-20 37-7 5-13 11-21 15-24 14-46 31-59 57-1 3-3 5-5 8-15-15-20-32-13-51 1-5 2-10 5-14 10-20 10-39-9-55-3-2-5-6-6-9-11-38-32-72-37-111-2-12-4-25-18-29-17-6-34-4-50 5-7 5-5 11 0 15 6 5 13 10 20 14 17 13 29 28 35 49 7 24 17 47 25 70 5 17 3 35-8 50-19 25-25 53-21 84 1 0 1 1 1 1 2 30-2 33-31 27-28-6-56-12-85-15-14-2-30 0-45 3-31 6-40-8-38-36 0-13 0-27 0-40-2-39-5-79-6-118 0-24 2-48 3-72 0-28-21-43-48-36-9 3-13 9-9 19 2 4 4 9 8 13 18 20 21 44 17 69-5 35-9 70-14 104-1 11-4 21-5 32l-4 0c-2-12-3-24-5-35-7-34-15-67-22-101-5-28-9-56-13-84-2-20-8-26-29-28-8 0-17 0-26 1-15 2-19 10-9 22 3 4 9 8 14 10 27 12 34 34 34 60 0 28 0 56 0 84 1 17 6 33 5 50 0 21-3 43-5 64-2 32-16 45-47 44-33-1-64 2-89 27-35 36-62 78-75 127-8 27-11 56-17 84-2 9-8 19-15 24-20 14-43 21-69 18-20-3-32 8-29 25 1 4 4 9 7 11 45 17 80 37 125 44 4 0 10 0 14 2 16 5 29 6 38-11 1-3 7-4 11-6 4-2 9-3 10-6 1-3-2-9-5-10-9-5-7-12-5-21 8-30 15-61 22-91 7-27 19-49 43-65 18-13 31-13 48 2 33 30 65 60 98 89 30 27 70 72 110 82 53 13 102-8 127-60 31-37 69-66 113-84 28-12 47-31 60-58 7-15 14-30 22-45 11-22 13-45 9-69-2-20-3-39 5-58 4-11 3-25 5-40z" />
<glyph glyph-name="cat-alt-1" horiz-adv-x="1000" unicode="&#xe838;" d="M913 122c-20 1-40 2-60 4-46 4-92 8-142 22 9 7 16 11 21 16 35 46 45 85-8 125-2 1-4 3-6 4-20 20-16 38 10 47 13 5 27 8 41 12 18 6 27 21 31 37 4 18-16 15-25 22-6 4-12 7-16 12-18 24-43 31-71 31-14 0-25 4-37 12-16 12-38 31-55 19-18-12-6-39-1-59 2-9 8-17 2-28-11-18-8-37-1-56 4-11 9-22 15-32 11-17-7-20-13-29-8-12-12-2-19 1-40 15-75 40-115 54-49 16-95 18-143-1-28-12-45-34-58-56-20-34-27-74-26-114 1-17-5-20-20-19-53 5-93 39-98 86-6 57 30 112 79 128 53 18 107 24 163 25 44 1 89 4 130 24 66 33 88 105 47 159-42 58-145 62-192 8-17-19-27-42-26-69 0-10-2-24 12-26 13-3 15 10 19 19 3 7 5 13 7 19 11 25 30 41 55 49 53 18 104-20 95-71-5-28-33-52-69-58-60-10-122-5-183-15-85-15-157-47-186-138-26-80 17-156 100-175 21-4 41-6 63-5 7 0 15 2 20-6 8-12 21-13 34-13 62 0 124-1 187 1 12 0 35-7 31 22 0 1 7 5 10 6 28 5 55 8 83 1 7-2 13-3 17-10 8-16 23-18 38-19 87-3 175-3 262 0 8 1 23-3 22 13-1 13-10 20-24 21z" />
<glyph glyph-name="cat-alt-2" horiz-adv-x="1000" unicode="&#xe839;" d="M737 333c-46 2-88-10-114-52-22-36-22-74-2-112 18-33 63-58 95-53 8 1 18 2 21 12 3 11-7 15-15 19-12 7-25 12-37 20-23 15-30 37-24 63 6 26 25 40 51 43 46 5 86-23 99-72 17-64-15-134-80-179-107-74-272-64-397 5 11 8 23 3 35 4 38 1 76 2 114 3 8 1 19 0 21 12 1 9-2 17-8 24-7 10-18 11-29 12-20 2-40 3-64 5 13 23 24 42 36 62 18 29 28 61 16 93-10 28 2 34 22 38 7-76 35-142 69-207 17-34 43-44 77-41 11 1 30-5 30 15 0 17-9 29-28 30-24 1-34 14-38 37-2 19-7 38-11 57-16 69-4 126 57 170 26 19 38 50 48 80 12 35 9 67-18 94-9 10-17 20-25 30-24 31-17 49 21 58 11 3 23 3 35 7 24 7 38 26 44 48 5 23-21 21-32 30-7 5-15 10-20 17-14 20-34 32-58 32-44 1-81 15-117 40-10 6-24 16-36 7-12-9-9-26-7-40 5-22 19-48 12-66-21-56-2-100 28-142-36-34-64-14-94 4-29 18-61 29-96 32-80 6-149-47-181-137-61-174 27-390 193-470 98-48 202-63 309-46 113 19 196 79 233 190 37 112-28 218-135 224z" />
<glyph glyph-name="cat-alt-3" horiz-adv-x="1000" unicode="&#xe83a;" d="M627 280c-33 16-59 39-76 71-12 21-21 44-23 68-3 41-2 82 11 121 5 16 11 32 22 45 5 6 8 8 13-1 14-22 29-43 42-65 6-8 10-9 20-7 23 6 47 11 72 4 9-3 19-2 28-6 6-2 10 4 14 8 18 19 36 38 55 57 3 3 5 10 11 7 5-2 3-8 4-12 5-43 10-86 8-128-2-47-13-92-47-126-20-19-42-33-68-39-17-5-19-9-22-26-4-24-10-47-16-70-6-26-13-52-19-79-5-24-13-48-18-73-5-25-12-49-21-73-5-13-10-26-20-36-13-12-24-8-30 9-4 12-4 24-4 37-2 42 4 83 4 125 1 15-2 30-8 44-5 9-12 15-24 15-11 0-17-5-23-14-10-18-14-37-18-57-9-45-15-91-26-136-2-8-6-15-10-22-2-4-7-8-13-7-5 0-9 4-11 9-8 16-11 32-13 49-4 33-10 66-13 99-3 29-5 58-9 87-2 14-5 29-12 42-6 11-14 18-26 17-13-1-17-12-20-22-10-29-13-59-15-90-2-41-5-81-7-122-1-20 0-42-12-60-8-13-19-14-28-2-9 12-14 26-18 41-5 21-11 43-16 64-5 18-10 36-14 54-5 25-11 50-16 75-3 13-6 27-8 40-4 23-9 46-12 69-8 54-15 108-1 162 4 17 10 34 19 50 2 4 3 6-1 11-30 30-39 69-40 111-3 80 45 139 108 168 45 21 93 25 141 18 40-6 72-28 97-60 9-11 18-21 17-36-1-10-2-18-12-23-10-5-16 1-22 5-14 10-26 23-41 31-27 17-58 19-88 16-47-4-77-33-95-74-12-26-12-53 0-80 5-13 9-14 20-6 32 23 68 34 107 29 20-2 40-6 58-13 7-2 9-7 7-13-11-39-12-79-10-119 4-61 31-109 86-139 22-13 46-19 71-24 3-1 7-2 11 2z" />
<glyph glyph-name="cat-dog" horiz-adv-x="1000" unicode="&#xe83b;" d="M671 122c10-16 13-36 11-56-1-11-5-19-17-21-6-1-12-4-17 1-5 6 0 12 3 17 13 26 6 49-21 60-22 10-44 20-58 42-3 5-8 9-13 8-7-2-7-9-8-14-1-8-1-17-1-26-1-32-18-57-39-79-5-5-12-8-19-8-9 1-14 6-8 15 5 7 10 14 16 20 19 19 10 39 2 59-7 19-21 26-40 24-11-1-22 0-33-3-26-8-32-21-20-45 8-16 17-33 17-52 0-16-14-25-30-20-7 3-10 9-3 14 11 8 10 18 4 27-12 17-25 35-37 52-5 6-13 8-20 8-26 0-51-3-76-11-17-6-28-17-29-36 0-4 0-8-3-12-3-3-6-7-10-6-7 1-5 6-5 10-2 32 12 54 40 71 28 16 37 43 26 71-5 12-12 20-27 17-8-2-17-2-25-1-16 3-22 16-16 30 6 15 10 31 29 36 11 2 2 14 8 21 13-3 20-14 30-22 8-7 15-15 24-22 29-22 59-26 92-7 44 26 92 39 140 21 30-11 53-15 82 2 26 15 53-2 76-17 23-15 45-32 69-46 33-19 65-6 76 30 6 18 3 35-10 48-15 13-33 18-53 14-10-3-17-10-19-21 2 0 3-1 4-1 12-2 24-4 22-20-1-11-21-19-33-16-28 8-37 45-18 68 17 20 62 26 96 13 31-12 49-37 48-67 0-59-61-99-116-79-27 10-50 26-72 43-10 8-20 16-32 21-13 6-26 8-39 2-20-9-21-19-12-38 19-41 39-81 64-119z m-435 237c1 6 7 0 10-2 23-12 41-29 59-46 32-27 56-33 96-11 54 31 112 35 170 8 8-5 14-3 22 2 25 16 52 20 80 8 13-5 25-12 40-20-8 40 10 65 45 78-18 27-41 46-69 60-59 30-122 36-185 28-79-10-152-3-212 53-31 28-62 57-70 102-3 14-11 27-20 38h-4c-7-13-13-26-13-41 0-11-5-14-14-17-20-5-39-14-44-35-3-14-12-20-22-26-10-5-20-10-30-13-16-4-15-12-7-22 15-19 36-26 59-26 13 1 21-4 27-15 21-37 45-71 72-104 2-2 6-15 10 1z m551-93c8-5 18-18 30-7 12 12 16 28 10 44-7 16-23 18-38 19 12-14 16-28 5-44-2-4-14-7-7-12z m26-82c-4 5-7 8-14 8-29 0-56 10-79 26-21 14-40 28-60 42-10 7-20 12-33 7-10-4-14-8-7-20 15-27 37-45 63-59 25-13 36-34 36-61-1-14-1-29-19-34-6-2-6-29-1-32 10-5 43 9 46 21 9 33 17 66 6 106 30-24 53-48 70-77 9-17 6-23-12-30-9-3-13-9-12-16 1-9 8-8 14-8 14-1 27 0 40 3 22 4 28 16 16 35-17 30-36 59-54 89z m115 89c-9 3-17 7-25 10-6 2-11 3-12-6-1-13-6-24-13-36 21-2 45 17 60 28l-10 4z" />
<glyph glyph-name="cat-face" horiz-adv-x="1000" unicode="&#xe83c;" d="M917 415c-21 109-46 217-74 325-2 9-6 16-16 18-10 3-17-2-23-11-11-15-23-30-34-44-36-49-72-97-107-146-4-5-7-7-13-4-7 4-14 6-20 8-54 16-109 19-164 16-39-2-78-8-115-23-7-3-11-2-15 4-47 63-94 126-141 189-6 8-13 13-23 11-9-2-14-9-16-18-15-60-30-121-43-181-20-87-39-175-49-264-6-59 6-114 38-164 5-7 8-7 15-3 46 24 92 48 139 72 7 4 15 4 22-1 6-5 9-12 7-20-1-8-7-12-14-16-43-22-86-45-130-67-8-4-7-7-1-12 8-7 15-15 23-23 5-6 9-5 16-2 38 21 77 41 115 61 12 6 24 3 29-8 6-10 2-21-10-27-6-4-13-7-19-10-29-15-58-30-88-46 171-119 424-116 591 2-10 5-20 10-29 15l-75 39c-12 6-15 17-10 28 5 9 17 12 28 7 1 0 3-1 4-2 36-19 72-37 108-56 7-4 12-4 17 2 7 7 14 14 21 21 8 9 8 9-2 14-42 22-84 43-125 65-10 5-14 13-13 22 2 14 16 21 31 13 45-23 90-46 134-70 5-2 8-3 11 2 27 44 43 90 40 141-3 49-11 96-20 143z m-700-31c-4 33 6 37 33 41 78 12 164-45 180-130 3-12-2-20-13-25-18-8-42-13-61-13-73 1-130 54-139 127z m400-198c-33-58-67-115-100-173-10-17-27-17-37 1l-100 172c-10 18-2 33 19 33 33 0 66 0 100 0 33 0 66 0 99 0 21 0 30-14 19-33z m54 73c-8-1-15-1-22-2-21 1-41 5-60 13-13 5-17 13-14 26 17 78 87 133 167 130 11 0 21-2 31-5 11-3 16-9 16-21-2-63-40-128-118-141z m-235-79c-6 0-6-2-3-6l34-60c10-18 21-35 32-54 23 40 45 79 69 120-45 0-89 0-132 0z m-67 157c-27 32-61 51-104 50-4 0-8 0-7-7 9-48 51-83 102-83 6 0 14 1 22 3 4 1 6 2 4 7-5 11-10 21-17 30z m369 50c-49 1-100-33-118-79-3-5-2-7 4-8 8-2 15-3 20-3 51 0 90 32 102 80 3 9 0 10-8 10z" />
</font>
</defs>
</svg>
